Featured TV Shows


Fresh Off the Boat S04E16

Posted By: Tavaz
SD / WEB-DL IMDb
Fresh Off the Boat S04E16

Fresh Off the Boat S04E16
WEB-DL | MKV | 1056x594 | English | H264 @ 1512 kbps | AAC @ 96 kbps | 21 min 31 s | 245 MiB
Genre: Comedy

A '90s-set single-camera comedy about a hip-hop-loving Asian kid growing up in suburban Orlando, being raised by an immigrant father obsessed with all things American and an immigrant mother often bewildered by white culture.

0ff4c0a643524fd58de52432f87cd38a.mkv (245.4 MB)



General
Unique ID : 137522505020593390114937300454174761565 (0x6775DEFCC7E943A4BD09D97E0E2E225D)
Complete name : ./0ff4c0a643524fd58de52432f87cd38a.mkv
Format : Matroska
Format version : Version 4 / Version 2
File size : 245 MiB
Duration : 21 min 31 s
Overall bit rate : 1 594 kb/s
Encoded date : UTC 2018-02-07 10:58:42
Writing application : mkvmerge v19.0.0 ('Brave Captain') 64-bit
Writing library : libebml v1.3.5 + libmatroska v1.4.8

Video
ID : 1
Format : AVC
Format/Info : Advanced Video Codec
Format profile : Main@L3.1
Format settings : CABAC / 2 Ref Frames
Format settings, CABAC : Yes
Format settings, RefFrames : 2 frames
Codec ID : V_MPEG4/ISO/AVC
Duration : 21 min 31 s
Bit rate : 1 512 kb/s
Width : 1 056 pixels
Height : 594 pixels
Display aspect ratio : 16:9
Frame rate mode : Constant
Frame rate : 23.976 (24000/1001) FPS
Original frame rate : 24.000 FPS
Color space : YUV
Chroma subsampling : 4:2:0
Bit depth : 8 bits
Scan type : Progressive
Bits/(Pixel*Frame) : 0.101
Stream size : 230 MiB (94%)
Writing library : x264 core 148 r2579M 73ae2d1
Encoding settings : cabac=1 / ref=2 / deblock=1:0:0 / analyse=0x1:0x111 / me=hex / subme=2 / psy=1 / psy_rd=1.00:0.00 / mixed_ref=0 / me_range=16 / chroma_me=1 / trellis=0 / 8x8dct=0 / cqm=0 / deadzone=21,11 / fast_pskip=1 / chroma_qp_offset=0 / threads=4 / lookahead_threads=1 / sliced_threads=0 / nr=250 / decimate=1 / interlaced=0 / bluray_compat=0 / stitchable=1 / constrained_intra=0 / bframes=0 / weightp=1 / keyint=250 / keyint_min=24 / scenecut=40 / intra_refresh=0 / rc_lookahead=10 / rc=2pass / mbtree=1 / bitrate=1512 / ratetol=1.0 / qcomp=0.60 / qpmin=5 / qpmax=69 / qpstep=4 / cplxblur=20.0 / qblur=0.5 / ip_ratio=1.40 / aq=1:1.00
Default : Yes
Forced : No

Audio
ID : 2
Format : AAC
Format/Info : Advanced Audio Codec
Format profile : HE-AAC / LC
Format settings : Implicit
Codec ID : A_AAC-2
Duration : 21 min 31 s
Bit rate : 96.0 kb/s
Channel(s) : 2 channels
Channel positions : Front: L R
Sampling rate : 48.0 kHz / 24.0 kHz
Frame rate : 23.438 FPS (1024 SPF)
Compression mode : Lossy
Stream size : 14.6 MiB (6%)
Default : Yes
Forced : No

Text
ID : 3
Format : UTF-8
Codec ID : S_TEXT/UTF8
Codec ID/Info : UTF-8 Plain Text
Duration : 21 min 20 s
Bit rate : 86 b/s
Count of elements : 441
Stream size : 13.5 KiB (0%)
Default : Yes
Forced : No





Fresh Off the Boat S04E16


Fresh Off the Boat S04E16


Fresh Off the Boat S04E16


Fresh Off the Boat S04E16


Fresh Off the Boat S04E16

All episodes