Featured TV Shows


Fresh Off the Boat S05E04

Posted By: Tavaz
1080p (FullHD) / WEBRip IMDb
Fresh Off the Boat S05E04

Fresh Off the Boat S05E04
WEBRip | MKV | 1920x1080 | null | H264 @ 7265 kbps | E-AC-3 @ 640 kbps | 21 min 33 s | 1.21 GiB
Subtitles: English
Genre: Comedy

A '90s-set single-camera comedy about a hip-hop-loving Asian kid growing up in suburban Orlando, being raised by an immigrant father obsessed with all things American and an immigrant mother often bewildered by white culture.

8c3ec0a092ea42ff9a78f0df50361f3a.mkv (1.2 GB)



General
Unique ID : 308943286197266161211458981252234399368 (0xE86C5006959FF693A89AA319AE0ACE88)
Complete name : ./8c3ec0a092ea42ff9a78f0df50361f3a.mkv
Format : Matroska
Format version : Version 4 / Version 2
File size : 1.21 GiB
Duration : 21 min 33 s
Overall bit rate : 8 066 kb/s
Movie name : Fresh Off the Boat S05E04
Writing application : Lavf57.72.101
Writing library : Lavf57.72.101
ErrorDetectionType : Per level 1

Video
ID : 1
Format : AVC
Format/Info : Advanced Video Codec
Format profile : High@L4
Format settings : CABAC / 4 Ref Frames
Format settings, CABAC : Yes
Format settings, RefFrames : 4 frames
Codec ID : V_MPEG4/ISO/AVC
Duration : 21 min 33 s
Bit rate : 7 266 kb/s
Width : 1 920 pixels
Height : 1 080 pixels
Display aspect ratio : 16:9
Frame rate mode : Constant
Frame rate : 23.976 (24000/1001) FPS
Color space : YUV
Chroma subsampling : 4:2:0
Bit depth : 8 bits
Scan type : Progressive
Bits/(Pixel*Frame) : 0.146
Stream size : 1.09 GiB (90%)
Default : Yes
Forced : No
Color range : Limited
Color primaries : BT.709
Transfer characteristics : BT.709
Matrix coefficients : BT.709

Audio
ID : 2
Format : E-AC-3
Format/Info : Enhanced Audio Coding 3
Format settings, Endianness : Big
Codec ID : A_EAC3
Duration : 21 min 33 s
Bit rate mode : Constant
Bit rate : 640 kb/s
Channel(s) : 6 channels
Channel positions : Front: L C R, Side: L R, LFE
Sampling rate : 48.0 kHz
Frame rate : 187.500 FPS (256 SPF)
Bit depth : 32 bits
Compression mode : Lossy
Stream size : 98.7 MiB (8%)
Title : English
Language : null
Service kind : Complete Main
Default : Yes
Forced : No

Text
ID : 3
Format : UTF-8
Codec ID : S_TEXT/UTF8
Codec ID/Info : UTF-8 Plain Text
Title : English [CC]
Language : English
Default : No
Forced : No





Fresh Off the Boat S05E04


Fresh Off the Boat S05E04


Fresh Off the Boat S05E04


Fresh Off the Boat S05E04


Fresh Off the Boat S05E04

All episodes