Featured TV Shows


Fresh Off the Boat S05E05

Posted By: Tavaz
1080p (FullHD) / WEB-DL IMDb
Fresh Off the Boat S05E05

Fresh Off the Boat S05E05
WEB-DL | MKV | 1920x1080 | English | H264 @ 7553 kbps | E-AC-3 @ 640 kbps | 21 min 33 s | 1.23 GiB
Subtitles: English
Genre: Comedy

A '90s-set single-camera comedy about a hip-hop-loving Asian kid growing up in suburban Orlando, being raised by an immigrant father obsessed with all things American and an immigrant mother often bewildered by white culture.

093eb277c7054079aea3acb3319eed1a.mkv (1.2 GB)



General
Unique ID : 112758369470424426059796906213380101813 (0x54D478D696424AA242E7634D7A1E96B5)
Complete name : ./093eb277c7054079aea3acb3319eed1a.mkv
Format : Matroska
Format version : Version 4 / Version 2
File size : 1.23 GiB
Duration : 21 min 33 s
Overall bit rate : 8 196 kb/s
Encoded date : UTC 2018-11-11 04:53:06
Writing application : mkvmerge v19.0.0 ('Brave Captain') 64-bit
Writing library : libebml v1.3.5 + libmatroska v1.4.8

Video
ID : 1
Format : AVC
Format/Info : Advanced Video Codec
Format profile : High@L4
Format settings : CABAC / 4 Ref Frames
Format settings, CABAC : Yes
Format settings, RefFrames : 4 frames
Codec ID : V_MPEG4/ISO/AVC
Duration : 21 min 33 s
Bit rate : 7 554 kb/s
Width : 1 920 pixels
Height : 1 080 pixels
Display aspect ratio : 16:9
Frame rate mode : Constant
Frame rate : 23.976 (24000/1001) FPS
Color space : YUV
Chroma subsampling : 4:2:0
Bit depth : 8 bits
Scan type : Progressive
Bits/(Pixel*Frame) : 0.152
Stream size : 1.14 GiB (92%)
Default : Yes
Forced : No
Color range : Limited
Color primaries : BT.709
Transfer characteristics : BT.709
Matrix coefficients : BT.709

Audio
ID : 2
Format : E-AC-3
Format/Info : Enhanced Audio Coding 3
Format settings, Endianness : Big
Codec ID : A_EAC3
Duration : 21 min 33 s
Bit rate mode : Constant
Bit rate : 640 kb/s
Channel(s) : 6 channels
Channel positions : Front: L C R, Side: L R, LFE
Sampling rate : 48.0 kHz
Frame rate : 187.500 FPS (256 SPF)
Compression mode : Lossy
Stream size : 98.7 MiB (8%)
Language : English
Service kind : Complete Main
Default : Yes
Forced : No

Text
ID : 3
Format : UTF-8
Codec ID : S_TEXT/UTF8
Codec ID/Info : UTF-8 Plain Text
Duration : 21 min 31 s
Bit rate : 121 b/s
Count of elements : 656
Stream size : 19.1 KiB (0%)
Title : SDH
Language : English
Default : No
Forced : No





Fresh Off the Boat S05E05


Fresh Off the Boat S05E05


Fresh Off the Boat S05E05


Fresh Off the Boat S05E05


Fresh Off the Boat S05E05

All episodes