Featured TV Shows


Fresh Off the Boat S05E12

Posted By: Tavaz
720p (HD) / HDTV IMDb
Fresh Off the Boat S05E12

Fresh Off the Boat S05E12
HDTV | MKV | 1280x720 | English | H264 @ 3758 kbps | AC-3 @ 384 kbps | 21 min 1 s | 636 MiB
Genre: Comedy

A '90s-set single-camera comedy about a hip-hop-loving Asian kid growing up in suburban Orlando, being raised by an immigrant father obsessed with all things American and an immigrant mother often bewildered by white culture.

51be5f06d3854419b9362b62ed0df981.mkv (635.7 MB)



General
Unique ID : 240342770176138567935114075392384282858 (0xB4D05573E95DDA0E84BB6D484549B0EA)
Complete name : ./51be5f06d3854419b9362b62ed0df981.mkv
Format : Matroska
Format version : Version 4 / Version 2
File size : 636 MiB
Duration : 21 min 1 s
Overall bit rate : 4 226 kb/s
Encoded date : UTC 2019-01-26 01:03:16
Writing application : FastLE v3.0.0 - AVS
Writing library : libx264 + libebml + libmatroska + libfastrar

Video
ID : 1
Format : AVC
Format/Info : Advanced Video Codec
Format profile : High@L4.1
Format settings : CABAC / 5 Ref Frames
Format settings, CABAC : Yes
Format settings, RefFrames : 5 frames
Codec ID : V_MPEG4/ISO/AVC
Duration : 21 min 1 s
Bit rate : 3 758 kb/s
Width : 1 280 pixels
Height : 720 pixels
Display aspect ratio : 16:9
Frame rate mode : Constant
Frame rate : 23.976 (24000/1001) FPS
Color space : YUV
Chroma subsampling : 4:2:0
Bit depth : 8 bits
Scan type : Progressive
Bits/(Pixel*Frame) : 0.170
Stream size : 565 MiB (89%)
Writing library : x264 core 157 r2935 545de2f
Encoding settings : cabac=1 / ref=5 / deblock=1:0:0 / analyse=0x3:0x113 / me=hex / subme=8 / psy=1 / psy_rd=1.00:0.00 / mixed_ref=1 / me_range=16 / chroma_me=1 / trellis=2 / 8x8dct=1 / cqm=0 / deadzone=21,11 / fast_pskip=1 / chroma_qp_offset=-2 / threads=22 / lookahead_threads=3 / sliced_threads=0 / nr=0 / decimate=1 / interlaced=0 / bluray_compat=0 / constrained_intra=0 / bframes=3 / b_pyramid=2 / b_adapt=1 / b_bias=0 / direct=3 / weightb=1 / open_gop=0 / weightp=2 / keyint=250 / keyint_min=23 / scenecut=40 / intra_refresh=0 / rc_lookahead=50 / rc=crf / mbtree=1 / crf=18.0 / qcomp=0.60 / qpmin=0 / qpmax=69 / qpstep=4 / ip_ratio=1.40 / aq=1:1.00
Default : Yes
Forced : No
Color range : Limited
Matrix coefficients : BT.709

Audio
ID : 2
Format : AC-3
Format/Info : Audio Coding 3
Format settings, Endianness : Big
Codec ID : A_AC3
Duration : 21 min 1 s
Bit rate mode : Constant
Bit rate : 384 kb/s
Channel(s) : 6 channels
Channel positions : Front: L C R, Side: L R, LFE
Sampling rate : 48.0 kHz
Frame rate : 31.250 FPS (1536 SPF)
Bit depth : 16 bits
Compression mode : Lossy
Stream size : 57.8 MiB (9%)
Service kind : Complete Main
Default : Yes
Forced : No





Fresh Off the Boat S05E12


Fresh Off the Boat S05E12


Fresh Off the Boat S05E12


Fresh Off the Boat S05E12


Fresh Off the Boat S05E12

All episodes