Featured TV Shows


Fresh Off the Boat S05E15

Posted By: Tavaz
720p (HD) / WEBRip IMDb
Fresh Off the Boat S05E15

Fresh Off the Boat S05E15
WEBRip | MKV | 1280x720 | English | H264 @ 4555 kbps | E-AC-3 @ 640 kbps | 24 min 22 s | 801 MiB
Subtitles: English
Genre: Comedy

A '90s-set single-camera comedy about a hip-hop-loving Asian kid growing up in suburban Orlando, being raised by an immigrant father obsessed with all things American and an immigrant mother often bewildered by white culture.

576861cd00c04dceb9e199563dd7c400.mkv (801.5 MB)



General
Unique ID : 309381518394713484083720848384536402913 (0xE8C0B68A8D54E62B17ABC1E37E20DBE1)
Complete name : ./576861cd00c04dceb9e199563dd7c400.mkv
Format : Matroska
Format version : Version 4 / Version 2
File size : 801 MiB
Duration : 24 min 22 s
Overall bit rate : 4 597 kb/s
Encoded date : UTC 2019-02-23 08:01:49
Writing application : mkvmerge v30.1.0 ('Forever And More') 64-bit
Writing library : libebml v1.3.6 + libmatroska v1.4.9

Video
ID : 1
Format : AVC
Format/Info : Advanced Video Codec
Format profile : High@L3.1
Format settings : CABAC / 4 Ref Frames
Format settings, CABAC : Yes
Format settings, RefFrames : 4 frames
Codec ID : V_MPEG4/ISO/AVC
Duration : 21 min 33 s
Bit rate mode : Constant
Bit rate : 4 555 kb/s
Nominal bit rate : 6 000 kb/s
Width : 1 280 pixels
Height : 720 pixels
Display aspect ratio : 16:9
Frame rate mode : Constant
Frame rate : 23.976 (24000/1001) FPS
Color space : YUV
Chroma subsampling : 4:2:0
Bit depth : 8 bits
Scan type : Progressive
Bits/(Pixel*Frame) : 0.206
Stream size : 702 MiB (88%)
Language : English
Default : Yes
Forced : No
Color range : Limited
Color primaries : BT.709
Transfer characteristics : BT.709
Matrix coefficients : BT.709

Audio
ID : 2
Format : E-AC-3
Format/Info : Enhanced Audio Coding 3
Format settings, Endianness : Big
Codec ID : A_EAC3
Duration : 21 min 33 s
Bit rate mode : Constant
Bit rate : 640 kb/s
Channel(s) : 6 channels
Channel positions : Front: L C R, Side: L R, LFE
Sampling rate : 48.0 kHz
Frame rate : 187.500 FPS (256 SPF)
Compression mode : Lossy
Stream size : 98.7 MiB (12%)
Language : English
Service kind : Complete Main
Default : Yes
Forced : No

Text
ID : 3
Format : UTF-8
Codec ID : S_TEXT/UTF8
Codec ID/Info : UTF-8 Plain Text
Duration : 24 min 20 s
Bit rate : 111 b/s
Count of elements : 610
Stream size : 19.8 KiB (0%)
Title : English
Language : English
Default : No
Forced : No





Fresh Off the Boat S05E15


Fresh Off the Boat S05E15


Fresh Off the Boat S05E15


Fresh Off the Boat S05E15


Fresh Off the Boat S05E15

All episodes