Featured TV Shows


Fresh Off the Boat S05E21

Posted By: Tavaz
720p (HD) / WEBRip IMDb
Fresh Off the Boat S05E21

Fresh Off the Boat S05E21
WEBRip | MKV | 1280x720 | English | H264 @ 4563 kbps | E-AC-3 @ 640 kbps | 21 min 33 s | 803 MiB
Subtitles: English
Genre: Comedy

A '90s-set single-camera comedy about a hip-hop-loving Asian kid growing up in suburban Orlando, being raised by an immigrant father obsessed with all things American and an immigrant mother often bewildered by white culture.

64fab466b7194ec9a4f49f20a7b041a1.mkv (802.6 MB)



General
Unique ID : 129656505208658951249489418141003783647 (0x618AEF41112F55A86EC1B20D2FCD9DDF)
Complete name : ./64fab466b7194ec9a4f49f20a7b041a1.mkv
Format : Matroska
Format version : Version 4 / Version 2
File size : 803 MiB
Duration : 21 min 33 s
Overall bit rate : 5 205 kb/s
Encoded date : UTC 2019-04-06 07:02:45
Writing application : mkvmerge v31.0.0 ('Dolores In A Shoestand') 64-bit
Writing library : libebml v1.3.6 + libmatroska v1.4.9

Video
ID : 1
Format : AVC
Format/Info : Advanced Video Codec
Format profile : High@L3.1
Format settings : CABAC / 4 Ref Frames
Format settings, CABAC : Yes
Format settings, RefFrames : 4 frames
Codec ID : V_MPEG4/ISO/AVC
Duration : 21 min 33 s
Bit rate mode : Constant
Bit rate : 4 563 kb/s
Nominal bit rate : 6 000 kb/s
Width : 1 280 pixels
Height : 720 pixels
Display aspect ratio : 16:9
Frame rate mode : Constant
Frame rate : 23.976 (24000/1001) FPS
Color space : YUV
Chroma subsampling : 4:2:0
Bit depth : 8 bits
Scan type : Progressive
Bits/(Pixel*Frame) : 0.207
Stream size : 704 MiB (88%)
Language : English
Default : Yes
Forced : No
Color range : Limited
Color primaries : BT.709
Transfer characteristics : BT.709
Matrix coefficients : BT.709

Audio
ID : 2
Format : E-AC-3
Format/Info : Enhanced Audio Coding 3
Format settings, Endianness : Big
Codec ID : A_EAC3
Duration : 21 min 33 s
Bit rate mode : Constant
Bit rate : 640 kb/s
Channel(s) : 6 channels
Channel positions : Front: L C R, Side: L R, LFE
Sampling rate : 48.0 kHz
Frame rate : 187.500 FPS (256 SPF)
Compression mode : Lossy
Stream size : 98.7 MiB (12%)
Language : English
Service kind : Complete Main
Default : Yes
Forced : No

Text
ID : 3
Format : UTF-8
Codec ID : S_TEXT/UTF8
Codec ID/Info : UTF-8 Plain Text
Duration : 21 min 30 s
Bit rate : 109 b/s
Count of elements : 601
Stream size : 17.3 KiB (0%)
Language : English
Default : No
Forced : No





Fresh Off the Boat S05E21


Fresh Off the Boat S05E21


Fresh Off the Boat S05E21


Fresh Off the Boat S05E21


Fresh Off the Boat S05E21

All episodes