Featured TV Shows


Fresh Off the Boat S05E22

Posted By: Tavaz
720p (HD) / WEBRip IMDb
Fresh Off the Boat S05E22

Fresh Off the Boat S05E22
WEBRip | MKV | 1280x720 | English | H264 @ 4983 kbps | E-AC-3 @ 640 kbps | 21 min 33 s | 867 MiB
Subtitles: English
Genre: Comedy


A '90s-set single-camera comedy about a hip-hop-loving Asian kid growing up in suburban Orlando, being raised by an immigrant father obsessed with all things American and an immigrant mother often bewildered by white culture.

fresh.off.the.boat.s05e22.720p.web.h264-memento.mkv (867.4 MB)



General
Unique ID : 180391541758748718370418461476257011034 (0x87B625AED0FAD60C096F4355CBC4155A)
Complete name : ./fresh.off.the.boat.s05e22.720p.web.h264-memento.mkv
Format : Matroska
Format version : Version 4 / Version 2
File size : 867 MiB
Duration : 21 min 33 s
Overall bit rate : 5 625 kb/s
Encoded date : UTC 2019-04-13 07:01:59
Writing application : mkvmerge v31.0.0 ('Dolores In A Shoestand') 64-bit
Writing library : libebml v1.3.6 + libmatroska v1.4.9

Video
ID : 1
Format : AVC
Format/Info : Advanced Video Codec
Format profile : High@L3.1
Format settings : CABAC / 4 Ref Frames
Format settings, CABAC : Yes
Format settings, RefFrames : 4 frames
Codec ID : V_MPEG4/ISO/AVC
Duration : 21 min 33 s
Bit rate mode : Constant
Bit rate : 4 983 kb/s
Nominal bit rate : 6 000 kb/s
Width : 1 280 pixels
Height : 720 pixels
Display aspect ratio : 16:9
Frame rate mode : Constant
Frame rate : 23.976 (24000/1001) FPS
Color space : YUV
Chroma subsampling : 4:2:0
Bit depth : 8 bits
Scan type : Progressive
Bits/(Pixel*Frame) : 0.226
Stream size : 768 MiB (89%)
Language : English
Default : Yes
Forced : No
Color range : Limited
Color primaries : BT.709
Transfer characteristics : BT.709
Matrix coefficients : BT.709

Audio
ID : 2
Format : E-AC-3
Format/Info : Enhanced Audio Coding 3
Format settings, Endianness : Big
Codec ID : A_EAC3
Duration : 21 min 33 s
Bit rate mode : Constant
Bit rate : 640 kb/s
Channel(s) : 6 channels
Channel positions : Front: L C R, Side: L R, LFE
Sampling rate : 48.0 kHz
Frame rate : 187.500 FPS (256 SPF)
Compression mode : Lossy
Stream size : 98.7 MiB (11%)
Language : English
Service kind : Complete Main
Default : Yes
Forced : No

Text
ID : 3
Format : UTF-8
Codec ID : S_TEXT/UTF8
Codec ID/Info : UTF-8 Plain Text
Duration : 21 min 27 s
Bit rate : 105 b/s
Count of elements : 582
Stream size : 16.5 KiB (0%)
Language : English
Default : No
Forced : No





Fresh Off the Boat S05E22


Fresh Off the Boat S05E22


Fresh Off the Boat S05E22


Fresh Off the Boat S05E22


Fresh Off the Boat S05E22

All episodes