Featured TV Shows


Fresh Off the Boat S04E08

Posted By: Tavaz
720p (HD) / WEB-DL IMDb
Fresh Off the Boat S04E08

Fresh Off the Boat S04E08
WEB-DL | MKV | 1280x720 | English | H264 @ 2502 kbps | AAC @ 63 kbps | 21 min 31 s | 396 MiB
Subtitles: English
Genre: Comedy

A '90s-set single-camera comedy about a hip-hop-loving Asian kid growing up in suburban Orlando, being raised by an immigrant father obsessed with all things American and an immigrant mother often bewildered by white culture.

4ccd10125d044b599e39189b20006db6.mkv (395.5 MB)



General
Unique ID : 213186359245723759543520423106082086530 (0xA06233055D9B9828A3C7454157699E82)
Complete name : ./4ccd10125d044b599e39189b20006db6.mkv
Format : Matroska
Format version : Version 4 / Version 2
File size : 396 MiB
Duration : 21 min 31 s
Overall bit rate : 2 568 kb/s
Encoded date : UTC 2017-11-22 19:16:49
Writing application : mkvmerge v17.0.0 ('Be Ur Friend') 64-bit
Writing library : libebml v1.3.5 + libmatroska v1.4.8

Video
ID : 1
Format : AVC
Format/Info : Advanced Video Codec
Format profile : High@L3.1
Format settings : CABAC / 5 Ref Frames
Format settings, CABAC : Yes
Format settings, RefFrames : 5 frames
Codec ID : V_MPEG4/ISO/AVC
Duration : 21 min 31 s
Bit rate : 2 502 kb/s
Width : 1 280 pixels
Height : 720 pixels
Display aspect ratio : 16:9
Frame rate mode : Constant
Frame rate : 23.976 (24000/1001) FPS
Color space : YUV
Chroma subsampling : 4:2:0
Bit depth : 8 bits
Scan type : Progressive
Bits/(Pixel*Frame) : 0.113
Stream size : 385 MiB (97%)
Language : English
Default : Yes
Forced : No

Audio
ID : 2
Format : AAC
Format/Info : Advanced Audio Codec
Format profile : HE-AAC / LC
Format settings : Explicit
Codec ID : A_AAC-2
Duration : 21 min 31 s
Bit rate : 64.0 kb/s
Channel(s) : 2 channels
Channel positions : Front: L R
Sampling rate : 48.0 kHz / 24.0 kHz
Frame rate : 23.438 FPS (1024 SPF)
Compression mode : Lossy
Stream size : 9.86 MiB (2%)
Default : Yes
Forced : No

Text
ID : 3
Format : UTF-8
Codec ID : S_TEXT/UTF8
Codec ID/Info : UTF-8 Plain Text
Duration : 21 min 23 s
Bit rate : 116 b/s
Count of elements : 584
Stream size : 18.2 KiB (0%)
Language : English
Default : No
Forced : No

Menu
00:00:00.000 : en:Chapter 1
00:08:47.541 : en:Chapter 2
00:16:37.375 : en:Chapter 3
00:20:35.833 : en:Chapter 4





Fresh Off the Boat S04E08


Fresh Off the Boat S04E08


Fresh Off the Boat S04E08


Fresh Off the Boat S04E08


Fresh Off the Boat S04E08

All episodes