Featured TV Shows


Full Metal Panic! Invisible Victory S01E12

Posted By: Tavaz
1080p (FullHD) / WEBRip IMDb
Full Metal Panic! Invisible Victory S01E12

Full Metal Panic! Invisible Victory S01E12
WEBRip | MKV | 1920x1080 | Japanese | H264 @ 5073 kbps | AAC @ 128 kbps | 24 min 10 s | 900 MiB
Subtitles: English
Genre: Animation, Drama

Sousuke Sagara, a member of a covert anti-terrorist private military organization known as Mithril, tasked with protecting Kaname Chidori, a spirited Japanese high school girl.

1ee95f8fe30943aaaec7ff87df634650.mkv (899.5 MB)



General
Unique ID : 253935687599162675070216671668632990742 (0xBF0A3C0632C5A7B6BAACD47050FAB416)
Complete name : ./1ee95f8fe30943aaaec7ff87df634650.mkv
Format : Matroska
Format version : Version 4 / Version 2
File size : 900 MiB
Duration : 24 min 10 s
Overall bit rate : 5 204 kb/s
Movie name : Full Metal Panic! Invisible Victory Episode 12 - Make My Day
Encoded date : UTC 2018-10-28 22:36:58
Writing application : mkvmerge v12.0.0 ('Trust / Lust') 64bit
Writing library : libebml v1.3.4 + libmatroska v1.4.5

Video
ID : 1
Format : AVC
Format/Info : Advanced Video Codec
Format profile : High@L4
Format settings : CABAC / 4 Ref Frames
Format settings, CABAC : Yes
Format settings, RefFrames : 4 frames
Codec ID : V_MPEG4/ISO/AVC
Duration : 24 min 9 s
Bit rate : 5 074 kb/s
Width : 1 920 pixels
Height : 1 080 pixels
Display aspect ratio : 16:9
Frame rate mode : Constant
Frame rate : 23.976 (24000/1001) FPS
Color space : YUV
Chroma subsampling : 4:2:0
Bit depth : 8 bits
Scan type : Progressive
Bits/(Pixel*Frame) : 0.102
Stream size : 877 MiB (97%)
Writing library : x264 core 142
Encoding settings : cabac=1 / ref=4 / deblock=1:1:1 / analyse=0x3:0x113 / me=umh / subme=8 / psy=1 / psy_rd=0.40:0.00 / mixed_ref=1 / me_range=16 / chroma_me=1 / trellis=1 / 8x8dct=1 / cqm=0 / deadzone=21,11 / fast_pskip=1 / chroma_qp_offset=-2 / threads=12 / lookahead_threads=2 / sliced_threads=0 / nr=0 / decimate=1 / interlaced=0 / bluray_compat=0 / constrained_intra=0 / bframes=3 / b_pyramid=2 / b_adapt=2 / b_bias=0 / direct=3 / weightb=1 / open_gop=0 / weightp=2 / keyint=48 / keyint_min=24 / scenecut=40 / intra_refresh=0 / rc_lookahead=48 / rc=crf / mbtree=1 / crf=15.0 / qcomp=0.60 / qpmin=0 / qpmax=69 / qpstep=4 / vbv_maxrate=8000 / vbv_bufsize=12000 / crf_max=0.0 / nal_hrd=none / filler=0 / ip_ratio=1.40 / aq=1:0.60
Language : Japanese
Default : Yes
Forced : No

Audio
ID : 2
Format : AAC
Format/Info : Advanced Audio Codec
Format profile : LC
Codec ID : A_AAC-2
Duration : 24 min 10 s
Bit rate : 128 kb/s
Channel(s) : 2 channels
Channel positions : Front: L R
Sampling rate : 44.1 kHz
Frame rate : 43.066 FPS (1024 SPF)
Compression mode : Lossy
Delay relative to video : -83 ms
Stream size : 22.1 MiB (2%)
Language : Japanese
Default : Yes
Forced : No

Text
ID : 3
Format : ASS
Codec ID : S_TEXT/ASS
Codec ID/Info : Advanced Sub Station Alpha
Duration : 22 min 32 s
Bit rate : 117 b/s
Count of elements : 351
Compression mode : Lossless
Stream size : 19.4 KiB (0%)
Title : [English (US)]
Language : English
Default : Yes
Forced : No





Full Metal Panic! Invisible Victory S01E12


Full Metal Panic! Invisible Victory S01E12


Full Metal Panic! Invisible Victory S01E12


Full Metal Panic! Invisible Victory S01E12


Full Metal Panic! Invisible Victory S01E12

All episodes