Future Man S01E10

Posted By: Tavaz
1080p (FullHD) / WEB-DL IMDb
Future Man S01E10

Future Man S01E10
WEB-DL | MKV | 1920x1080 | English | H264 @ 5612 kbps | AAC @ 63 kbps | 29 min 6 s | 1.15 GiB
Subtitles: English
Genre: Comedy

Josh Futturman, a janitor by day/world-ranked gamer by night, is tasked with preventing the extinction of humanity after mysterious visitors from the future proclaim him the key to defeating the imminent super-race invasion.

d779c0c1779443408b324d77a9273068.mkv (1.2 GB)



General
Unique ID : 178225677918228955171878480795662735019 (0x86150459DBF73ECFB23F7037FA26D6AB)
Complete name : ./d779c0c1779443408b324d77a9273068.mkv
Format : Matroska
Format version : Version 4 / Version 2
File size : 1.15 GiB
Duration : 29 min 6 s
Overall bit rate : 5 678 kb/s
Encoded date : UTC 2017-11-14 06:29:27
Writing application : mkvmerge v9.5.0 ('Quiet Fire') 32bit
Writing library : libebml v1.3.4 + libmatroska v1.4.5

Video
ID : 1
Format : AVC
Format/Info : Advanced Video Codec
Format profile : High@L4
Format settings : CABAC / 4 Ref Frames
Format settings, CABAC : Yes
Format settings, RefFrames : 4 frames
Codec ID : V_MPEG4/ISO/AVC
Duration : 29 min 6 s
Bit rate : 5 612 kb/s
Width : 1 920 pixels
Height : 1 080 pixels
Display aspect ratio : 16:9
Frame rate mode : Constant
Frame rate : 23.976 (24000/1001) FPS
Color space : YUV
Chroma subsampling : 4:2:0
Bit depth : 8 bits
Scan type : Progressive
Bits/(Pixel*Frame) : 0.113
Stream size : 1.14 GiB (99%)
Default : Yes
Forced : No

Audio
ID : 2
Format : AAC
Format/Info : Advanced Audio Codec
Format profile : HE-AAC / LC
Format settings : Explicit
Codec ID : A_AAC-2
Duration : 29 min 6 s
Bit rate : 64.0 kb/s
Channel(s) : 2 channels
Channel positions : Front: L R
Sampling rate : 48.0 kHz / 24.0 kHz
Frame rate : 23.438 FPS (1024 SPF)
Compression mode : Lossy
Stream size : 13.3 MiB (1%)
Default : Yes
Forced : No

Text
ID : 3
Format : UTF-8
Codec ID : S_TEXT/UTF8
Codec ID/Info : UTF-8 Plain Text
Duration : 29 min 2 s
Bit rate : 81 b/s
Count of elements : 705
Stream size : 17.2 KiB (0%)
Language : English
Default : No
Forced : No

Menu
00:00:00.000 : en:Chapter 1
00:10:51.000 : en:Chapter 2
00:15:49.041 : en:Chapter 3
00:21:51.916 : en:Chapter 4





Future Man S01E10


Future Man S01E10


Future Man S01E10


Future Man S01E10


Future Man S01E10

All episodes