Featured TV Shows


Genius S02E01

Posted By: Tavaz
1080p (FullHD) / WEBRip IMDb
Genius S02E01

Genius S02E01
WEBRip | MKV | 1920x960 | French / English | H264 @ 8809 kbps | E-AC-3 @ 640 kbps | 50 min 12 s | 3.54 GiB
Subtitles: French, English
Genre: Drama


Anthology series about famous geniuses with the first season charting how Albert Einstein unlocked the mysteries of the atom and the universe, and the second exploring the passionate nature and relentless creative drive of Pablo Picasso.

c2f5c5910fa048e69b4751b666f8fe8a.mkv (3.5 GB)



General
Unique ID : 126477275195844645375364979946964231501 (0x5F26A31CD068A085F716EC00598DA54D)
Complete name : ./c2f5c5910fa048e69b4751b666f8fe8a.mkv
Format : Matroska
Format version : Version 4 / Version 2
File size : 3.54 GiB
Duration : 50 min 12 s
Overall bit rate : 10.1 Mb/s
Encoded date : UTC 2019-09-21 11:29:42
Writing application : mkvmerge v37.0.0 ('Leave It') 64-bit
Writing library : libebml v1.3.9 + libmatroska v1.5.2

Video
ID : 1
Format : AVC
Format/Info : Advanced Video Codec
Format profile : High@L4
Format settings : CABAC / 4 Ref Frames
Format settings, CABAC : Yes
Format settings, RefFrames : 4 frames
Codec ID : V_MPEG4/ISO/AVC
Duration : 50 min 12 s
Bit rate mode : Constant
Bit rate : 8 809 kb/s
Nominal bit rate : 10 000 kb/s
Width : 1 920 pixels
Height : 960 pixels
Display aspect ratio : 2.000
Frame rate mode : Constant
Frame rate : 23.976 (24000/1001) FPS
Color space : YUV
Chroma subsampling : 4:2:0
Bit depth : 8 bits
Scan type : Progressive
Bits/(Pixel*Frame) : 0.199
Stream size : 3.09 GiB (87%)
Default : Yes
Forced : No
Color range : Limited
Color primaries : BT.709
Transfer characteristics : BT.709
Matrix coefficients : BT.709

Audio #1
ID : 2
Format : E-AC-3
Format/Info : Enhanced Audio Coding 3
Format settings, Endianness : Big
Codec ID : A_EAC3
Duration : 50 min 12 s
Bit rate mode : Constant
Bit rate : 640 kb/s
Channel(s) : 6 channels
Channel positions : Front: L C R, Side: L R, LFE
Sampling rate : 48.0 kHz
Frame rate : 187.500 FPS (256 SPF)
Compression mode : Lossy
Stream size : 230 MiB (6%)
Title : French
Language : French
Service kind : Complete Main
Default : Yes
Forced : No

Audio #2
ID : 3
Format : E-AC-3
Format/Info : Enhanced Audio Coding 3
Format settings, Endianness : Big
Codec ID : A_EAC3
Duration : 50 min 12 s
Bit rate mode : Constant
Bit rate : 640 kb/s
Channel(s) : 6 channels
Channel positions : Front: L C R, Side: L R, LFE
Sampling rate : 48.0 kHz
Frame rate : 187.500 FPS (256 SPF)
Compression mode : Lossy
Stream size : 230 MiB (6%)
Title : English
Language : English
Service kind : Complete Main
Default : No
Forced : No

Text #1
ID : 4
Format : UTF-8
Codec ID : S_TEXT/UTF8
Codec ID/Info : UTF-8 Plain Text
Duration : 49 min 35 s
Bit rate : 62 b/s
Count of elements : 620
Stream size : 22.8 KiB (0%)
Title : French
Language : French
Default : No
Forced : No

Text #2
ID : 5
Format : UTF-8
Codec ID : S_TEXT/UTF8
Codec ID/Info : UTF-8 Plain Text
Duration : 49 min 26 s
Bit rate : 65 b/s
Count of elements : 842
Stream size : 23.8 KiB (0%)
Title : English
Language : English
Default : No
Forced : No





Genius S02E01


Genius S02E01


Genius S02E01


Genius S02E01


Genius S02E01

All episodes