Featured TV Shows


Genius S02E01

Posted By: Tavaz
1080p (FullHD) / WEB-DL IMDb
Genius S02E01

Genius S02E01
WEB-DL | MKV | 1920x960 | English | H264 @ 8067 kbps | E-AC-3 @ 640 kbps | 50 min 12 s | 3.05 GiB
Subtitles: English
Genre: Drama

Anthology series about famous geniuses with the first season charting how Albert Einstein unlocked the mysteries of the atom and the universe, and the second exploring the passionate nature and relentless creative drive of Pablo Picasso.

57108d577d1a43d4bdba1405a267a170.mkv (3.1 GB)



General
Unique ID : 136464677505607074334892749917577156561 (0x66AA241071BB6FBD575DD79A542A17D1)
Complete name : ./57108d577d1a43d4bdba1405a267a170.mkv
Format : Matroska
Format version : Version 4 / Version 2
File size : 3.05 GiB
Duration : 50 min 12 s
Overall bit rate mode : Variable
Overall bit rate : 8 710 kb/s
Encoded date : UTC 2018-04-28 15:09:01
Writing application : mkvmerge v8.8.0 ('Wind at my back') 64bit
Writing library : libebml v1.3.3 + libmatroska v1.4.4

Video
ID : 1
Format : AVC
Format/Info : Advanced Video Codec
Format profile : High@L4
Format settings : CABAC / 4 Ref Frames
Format settings, CABAC : Yes
Format settings, RefFrames : 4 frames
Codec ID : V_MPEG4/ISO/AVC
Duration : 50 min 12 s
Bit rate mode : Variable
Bit rate : 8 068 kb/s
Maximum bit rate : 15.0 Mb/s
Width : 1 920 pixels
Height : 960 pixels
Display aspect ratio : 2.000
Frame rate mode : Constant
Frame rate : 23.976 (24000/1001) FPS
Color space : YUV
Chroma subsampling : 4:2:0
Bit depth : 8 bits
Scan type : Progressive
Bits/(Pixel*Frame) : 0.183
Stream size : 2.83 GiB (93%)
Default : Yes
Forced : No
Color range : Limited
Color primaries : BT.709
Transfer characteristics : BT.709
Matrix coefficients : BT.709

Audio
ID : 2
Format : E-AC-3
Format/Info : Enhanced Audio Coding 3
Format settings, Endianness : Big
Codec ID : A_EAC3
Duration : 50 min 11 s
Bit rate mode : Constant
Bit rate : 640 kb/s
Channel(s) : 6 channels
Channel positions : Front: L C R, Side: L R, LFE
Sampling rate : 48.0 kHz
Frame rate : 187.500 FPS (256 SPF)
Compression mode : Lossy
Stream size : 230 MiB (7%)
Language : English
Service kind : Complete Main
Default : Yes
Forced : No

Text
ID : 3
Format : UTF-8
Codec ID : S_TEXT/UTF8
Codec ID/Info : UTF-8 Plain Text
Duration : 50 min 3 s
Bit rate : 65 b/s
Count of elements : 843
Stream size : 23.8 KiB (0%)
Language : English
Default : No
Forced : No





Genius S02E01


Genius S02E01


Genius S02E01


Genius S02E01


Genius S02E01

All episodes