Featured TV Shows


Genius S02E02

Posted By: Tavaz
1080p (FullHD) / WEB-DL IMDb
Genius S02E02

Genius S02E02
WEB-DL | MKV | 1920x960 | English | H264 @ 7899 kbps | E-AC-3 @ 640 kbps | 49 min 30 s | 2.95 GiB
Subtitles: English
Genre: Drama

Anthology series about famous geniuses with the first season charting how Albert Einstein unlocked the mysteries of the atom and the universe, and the second exploring the passionate nature and relentless creative drive of Pablo Picasso.

76906f18ad69416599f707bc545245fc.mkv (3.0 GB)



General
Unique ID : 242003850246220051717823912501615156359 (0xB6103F05F48B7ACC310E2C6909BA5C87)
Complete name : ./76906f18ad69416599f707bc545245fc.mkv
Format : Matroska
Format version : Version 4 / Version 2
File size : 2.95 GiB
Duration : 49 min 30 s
Overall bit rate mode : Variable
Overall bit rate : 8 542 kb/s
Encoded date : UTC 2018-04-27 09:37:13
Writing application : mkvmerge v8.8.0 ('Wind at my back') 64bit
Writing library : libebml v1.3.3 + libmatroska v1.4.4

Video
ID : 1
Format : AVC
Format/Info : Advanced Video Codec
Format profile : High@L4
Format settings : CABAC / 4 Ref Frames
Format settings, CABAC : Yes
Format settings, RefFrames : 4 frames
Codec ID : V_MPEG4/ISO/AVC
Duration : 49 min 30 s
Bit rate mode : Variable
Bit rate : 7 900 kb/s
Maximum bit rate : 15.0 Mb/s
Width : 1 920 pixels
Height : 960 pixels
Display aspect ratio : 2.000
Frame rate mode : Constant
Frame rate : 23.976 (24000/1001) FPS
Color space : YUV
Chroma subsampling : 4:2:0
Bit depth : 8 bits
Scan type : Progressive
Bits/(Pixel*Frame) : 0.179
Stream size : 2.73 GiB (92%)
Default : Yes
Forced : No
Color range : Limited
Color primaries : BT.709
Transfer characteristics : BT.709
Matrix coefficients : BT.709

Audio
ID : 2
Format : E-AC-3
Format/Info : Enhanced Audio Coding 3
Format settings, Endianness : Big
Codec ID : A_EAC3
Duration : 49 min 30 s
Bit rate mode : Constant
Bit rate : 640 kb/s
Channel(s) : 6 channels
Channel positions : Front: L C R, Side: L R, LFE
Sampling rate : 48.0 kHz
Frame rate : 187.500 FPS (256 SPF)
Compression mode : Lossy
Stream size : 227 MiB (7%)
Language : English
Service kind : Complete Main
Default : Yes
Forced : No

Text
ID : 3
Format : UTF-8
Codec ID : S_TEXT/UTF8
Codec ID/Info : UTF-8 Plain Text
Duration : 49 min 22 s
Bit rate : 56 b/s
Count of elements : 752
Stream size : 20.3 KiB (0%)
Language : English
Default : No
Forced : No





Genius S02E02


Genius S02E02


Genius S02E02


Genius S02E02


Genius S02E02

All episodes