Featured TV Shows


Genius S02E07

Posted By: Tavaz
1080p (FullHD) / WEB-DL IMDb
Genius S02E07

Genius S02E07
WEB-DL | MKV | 1920x956 | English | H264 @ 3618 kbps | AC-3 @ 384 kbps | 51 min 7 s | 1.43 GiB
Genre: Drama

Anthology series about famous geniuses with the first season charting how Albert Einstein unlocked the mysteries of the atom and the universe, and the second exploring the passionate nature and relentless creative drive of Pablo Picasso.

5553a7ac623148d1b8f7e1dfaedbd28f.mkv (1.4 GB)



General
Unique ID : 204124482164259112256658943654418450230 (0x9990F1FC72256CBCFBF60C0EFD9C0736)
Complete name : ./5553a7ac623148d1b8f7e1dfaedbd28f.mkv
Format : Matroska
Format version : Version 4 / Version 2
File size : 1.43 GiB
Duration : 51 min 7 s
Overall bit rate : 4 004 kb/s
Encoded date : UTC 2018-05-30 18:26:23
Writing application : mkvmerge v22.0.0 ('At The End Of The World') 64-bit
Writing library : libebml v1.3.5 + libmatroska v1.4.8

Video
ID : 1
Format : AVC
Format/Info : Advanced Video Codec
Format profile : High@L3.1
Format settings : CABAC / 2 Ref Frames
Format settings, CABAC : Yes
Format settings, RefFrames : 2 frames
Codec ID : V_MPEG4/ISO/AVC
Duration : 51 min 7 s
Bit rate : 3 618 kb/s
Width : 1 920 pixels
Height : 956 pixels
Display aspect ratio : 2.008
Frame rate mode : Constant
Frame rate : 23.976 FPS
Color space : YUV
Chroma subsampling : 4:2:0
Bit depth : 8 bits
Scan type : Progressive
Bits/(Pixel*Frame) : 0.082
Stream size : 1.29 GiB (90%)
Writing library : x264 core 142 r2479 dd79a61
Encoding settings : cabac=1 / ref=2 / deblock=1:0:0 / analyse=0x3:0x113 / me=hex / subme=7 / psy=1 / psy_rd=1.00:0.00 / mixed_ref=1 / me_range=16 / chroma_me=1 / trellis=1 / 8x8dct=1 / cqm=0 / deadzone=21,11 / fast_pskip=1 / chroma_qp_offset=-2 / threads=12 / lookahead_threads=2 / sliced_threads=0 / nr=0 / decimate=1 / interlaced=0 / bluray_compat=0 / constrained_intra=0 / bframes=3 / b_pyramid=0 / b_adapt=1 / b_bias=0 / direct=1 / weightb=1 / open_gop=0 / weightp=2 / keyint=240 / keyint_min=24 / scenecut=40 / intra_refresh=0 / rc_lookahead=40 / rc=crf / mbtree=1 / crf=20.0 / qcomp=0.60 / qpmin=0 / qpmax=69 / qpstep=4 / vbv_maxrate=17500 / vbv_bufsize=17500 / crf_max=0.0 / nal_hrd=none / filler=0 / ip_ratio=1.40 / aq=1:1.00
Default : Yes
Forced : No
Color range : Limited
Color primaries : BT.709
Transfer characteristics : BT.709
Matrix coefficients : BT.709

Audio
ID : 2
Format : AC-3
Format/Info : Audio Coding 3
Format settings, Endianness : Big
Codec ID : A_AC3
Duration : 51 min 7 s
Bit rate mode : Constant
Bit rate : 384 kb/s
Channel(s) : 6 channels
Channel positions : Front: L C R, Side: L R, LFE
Sampling rate : 48.0 kHz
Frame rate : 31.250 FPS (1536 SPF)
Bit depth : 16 bits
Compression mode : Lossy
Stream size : 140 MiB (10%)
Title : Surround
Language : English
Service kind : Complete Main
Default : Yes
Forced : No





Genius S02E07


Genius S02E07


Genius S02E07


Genius S02E07


Genius S02E07

All episodes