Featured TV Shows


Genius S02E08

Posted By: Tavaz
1080p (FullHD) / WEBRip IMDb
Genius S02E08

Genius S02E08
WEBRip | MKV | 1920x960 | French / English | H264 @ 7655 kbps | E-AC-3 @ 640 kbps | 50 min 6 s | 3.13 GiB
Subtitles: French, English
Genre: Drama


Anthology series about famous geniuses with the first season charting how Albert Einstein unlocked the mysteries of the atom and the universe, and the second exploring the passionate nature and relentless creative drive of Pablo Picasso.

a6b9a5293a9a4f2e9d7362192300ea06.mkv (3.1 GB)



General
Unique ID : 149118788199149675431700386610867765169 (0x702F3BE3E869D2B80851E4BA48727FB1)
Complete name : ./a6b9a5293a9a4f2e9d7362192300ea06.mkv
Format : Matroska
Format version : Version 4 / Version 2
File size : 3.13 GiB
Duration : 50 min 6 s
Overall bit rate : 8 938 kb/s
Encoded date : UTC 2019-09-21 11:39:37
Writing application : mkvmerge v37.0.0 ('Leave It') 64-bit
Writing library : libebml v1.3.9 + libmatroska v1.5.2

Video
ID : 1
Format : AVC
Format/Info : Advanced Video Codec
Format profile : High@L4
Format settings : CABAC / 4 Ref Frames
Format settings, CABAC : Yes
Format settings, RefFrames : 4 frames
Codec ID : V_MPEG4/ISO/AVC
Duration : 50 min 6 s
Bit rate mode : Constant
Bit rate : 7 656 kb/s
Nominal bit rate : 10 000 kb/s
Width : 1 920 pixels
Height : 960 pixels
Display aspect ratio : 2.000
Frame rate mode : Constant
Frame rate : 23.976 (24000/1001) FPS
Color space : YUV
Chroma subsampling : 4:2:0
Bit depth : 8 bits
Scan type : Progressive
Bits/(Pixel*Frame) : 0.173
Stream size : 2.68 GiB (86%)
Default : Yes
Forced : No
Color range : Limited
Color primaries : BT.709
Transfer characteristics : BT.709
Matrix coefficients : BT.709

Audio #1
ID : 2
Format : E-AC-3
Format/Info : Enhanced Audio Coding 3
Format settings, Endianness : Big
Codec ID : A_EAC3
Duration : 50 min 6 s
Bit rate mode : Constant
Bit rate : 640 kb/s
Channel(s) : 6 channels
Channel positions : Front: L C R, Side: L R, LFE
Sampling rate : 48.0 kHz
Frame rate : 187.500 FPS (256 SPF)
Compression mode : Lossy
Stream size : 229 MiB (7%)
Title : French
Language : French
Service kind : Complete Main
Default : Yes
Forced : No

Audio #2
ID : 3
Format : E-AC-3
Format/Info : Enhanced Audio Coding 3
Format settings, Endianness : Big
Codec ID : A_EAC3
Duration : 50 min 6 s
Bit rate mode : Constant
Bit rate : 640 kb/s
Channel(s) : 6 channels
Channel positions : Front: L C R, Side: L R, LFE
Sampling rate : 48.0 kHz
Frame rate : 187.500 FPS (256 SPF)
Compression mode : Lossy
Stream size : 229 MiB (7%)
Title : English
Language : English
Service kind : Complete Main
Default : No
Forced : No

Text #1
ID : 4
Format : UTF-8
Codec ID : S_TEXT/UTF8
Codec ID/Info : UTF-8 Plain Text
Duration : 24 min 8 s
Bit rate : 1 b/s
Count of elements : 5
Stream size : 192 Bytes (0%)
Title : French (Forced)
Language : French
Default : Yes
Forced : Yes

Text #2
ID : 5
Format : UTF-8
Codec ID : S_TEXT/UTF8
Codec ID/Info : UTF-8 Plain Text
Duration : 49 min 26 s
Bit rate : 65 b/s
Count of elements : 681
Stream size : 23.7 KiB (0%)
Title : French
Language : French
Default : No
Forced : No

Text #3
ID : 6
Format : UTF-8
Codec ID : S_TEXT/UTF8
Codec ID/Info : UTF-8 Plain Text
Duration : 49 min 21 s
Bit rate : 73 b/s
Count of elements : 871
Stream size : 26.5 KiB (0%)
Title : English
Language : English
Default : No
Forced : No





Genius S02E08


Genius S02E08


Genius S02E08


Genius S02E08


Genius S02E08

All episodes