Index
# A B C D E F G H I J K L M N O P Q R S T U V W X Y Z
Tags
Language
Tags
May 2024
Su Mo Tu We Th Fr Sa
28 29 30 1 2 3 4
5 6 7 8 9 10 11
12 13 14 15 16 17 18
19 20 21 22 23 24 25
26 27 28 29 30 31 1

Featured TV Shows


Gentleman Jack S01E01

Posted By: Tavaz
1080p (FullHD) / HDTV IMDb
Gentleman Jack S01E01

Gentleman Jack S01E01
HDTV | MKV | 1920x960 | French / English | H264 @ 6629 kbps | E-AC-3 @ 256 kbps | 56 min 50 s | 2.84 GiB
Subtitles: French
Genre: Drama


Set in 1832 West Yorkshire, England and inspired by the true-story and coded journals of Anne Lister, this series follows her attempt to revitalize her inherited home, Shibdhen Hall. Most notably for the time period, a part of Lister’s plan is to help the fate of her own family by taking a wife.

gentleman.jack.s01e01.multi.1080p.hdtv.x264-hybris.mkv (2.8 GB)



General
Unique ID : 54223678719799641074812472272869882330 (0x28CB19C4781270473D5121CFA6CB79DA)
Complete name : ./gentleman.jack.s01e01.multi.1080p.hdtv.x264-hybris.mkv
Format : Matroska
Format version : Version 4 / Version 2
File size : 2.84 GiB
Duration : 56 min 50 s
Overall bit rate : 7 143 kb/s
Encoded date : UTC 2019-04-24 18:37:53
Writing application : mkvmerge v33.1.0 ('Primrose') 32-bit
Writing library : libebml v1.3.7 + libmatroska v1.5.0

Video
ID : 1
Format : AVC
Format/Info : Advanced Video Codec
Format profile : High@L4.1
Format settings : CABAC / 4 Ref Frames
Format settings, CABAC : Yes
Format settings, RefFrames : 4 frames
Codec ID : V_MPEG4/ISO/AVC
Duration : 56 min 50 s
Bit rate : 6 629 kb/s
Width : 1 920 pixels
Height : 960 pixels
Display aspect ratio : 2.000
Frame rate mode : Constant
Frame rate : 25.000 FPS
Color space : YUV
Chroma subsampling : 4:2:0
Bit depth : 8 bits
Scan type : Progressive
Bits/(Pixel*Frame) : 0.144
Stream size : 2.63 GiB (93%)
Title : Gentleman Jack S01E01
Writing library : x264 core 157 r2969 d4099dd
Encoding settings : opencl=1 / cabac=1 / ref=4 / deblock=1:-2:-2 / analyse=0x3:0x133 / me=umh / subme=8 / psy=1 / psy_rd=1.00:0.00 / mixed_ref=1 / me_range=24 / chroma_me=1 / trellis=2 / 8x8dct=1 / cqm=0 / deadzone=21,11 / fast_pskip=0 / chroma_qp_offset=-2 / threads=24 / lookahead_threads=4 / sliced_threads=0 / nr=0 / decimate=1 / interlaced=0 / bluray_compat=0 / constrained_intra=0 / bframes=3 / b_pyramid=2 / b_adapt=2 / b_bias=0 / direct=3 / weightb=1 / open_gop=0 / weightp=2 / keyint=250 / keyint_min=25 / scenecut=40 / intra_refresh=0 / rc_lookahead=60 / rc=crf / mbtree=1 / crf=17.0 / qcomp=0.60 / qpmin=0 / qpmax=69 / qpstep=4 / ip_ratio=1.40 / aq=1:1.00
Language : French
Default : Yes
Forced : No
Color range : Limited
Matrix coefficients : BT.709

Audio #1
ID : 2
Format : E-AC-3
Format/Info : Enhanced Audio Coding 3
Format settings, Endianness : Big
Codec ID : A_EAC3
Duration : 56 min 50 s
Bit rate mode : Constant
Bit rate : 256 kb/s
Channel(s) : 6 channels
Channel positions : Front: L C R, Side: L R, LFE
Sampling rate : 48.0 kHz
Frame rate : 187.500 FPS (256 SPF)
Compression mode : Lossy
Stream size : 104 MiB (4%)
Title : Français E-AC3 5.1
Language : French
Service kind : Complete Main
Default : Yes
Forced : No

Audio #2
ID : 3
Format : E-AC-3
Format/Info : Enhanced Audio Coding 3
Format settings, Endianness : Big
Codec ID : A_EAC3
Duration : 56 min 50 s
Bit rate mode : Constant
Bit rate : 256 kb/s
Channel(s) : 6 channels
Channel positions : Front: L C R, Side: L R, LFE
Sampling rate : 48.0 kHz
Frame rate : 187.500 FPS (256 SPF)
Compression mode : Lossy
Stream size : 104 MiB (4%)
Title : Anglais E-AC3 5.1
Language : English
Service kind : Complete Main
Default : No
Forced : No

Text
ID : 5
Format : UTF-8
Codec ID : S_TEXT/UTF8
Codec ID/Info : UTF-8 Plain Text
Duration : 56 min 8 s
Bit rate : 62 b/s
Count of elements : 839
Stream size : 25.6 KiB (0%)
Title : Français
Language : French
Default : No
Forced : No





Gentleman Jack S01E01


Gentleman Jack S01E01


Gentleman Jack S01E01


Gentleman Jack S01E01


Gentleman Jack S01E01

All episodes