Index
# A B C D E F G H I J K L M N O P Q R S T U V W X Y Z
Tags
Language
Tags
May 2024
Su Mo Tu We Th Fr Sa
28 29 30 1 2 3 4
5 6 7 8 9 10 11
12 13 14 15 16 17 18
19 20 21 22 23 24 25
26 27 28 29 30 31 1

Featured TV Shows


Gentleman Jack S01E03

Posted By: Tavaz
720p (HD) / WEBRip IMDb
Gentleman Jack S01E03

Gentleman Jack S01E03
WEBRip | MKV | 1280x720 | English | H264 @ 3261 kbps | E-AC-3 @ 640 kbps | 1 h 1 min | 1.66 GiB
Subtitles: English
Genre: Drama


Set in 1832 West Yorkshire, England and inspired by the true-story and coded journals of Anne Lister, this series follows her attempt to revitalize her inherited home, Shibdhen Hall. Most notably for the time period, a part of Lister’s plan is to help the fate of her own family by taking a wife.

Gentleman.Jack.S01E03.Oh.Is.That.What.You.Call.It.720p.AMZN.WEB-DL.DDP5.1.H.264-NTb.mkv (1.7 GB)



General
Unique ID : 315813153105553931052291813379685803368 (0xED97669D6ECB370D085F1C8DD610E568)
Complete name : ./Gentleman.Jack.S01E03.Oh.Is.That.What.You.Call.It.720p.AMZN.WEB-DL.DDP5.1.H.264-NTb.mkv
Format : Matroska
Format version : Version 4 / Version 2
File size : 1.66 GiB
Duration : 1 h 1 min
Overall bit rate : 3 904 kb/s
Encoded date : UTC 2019-05-07 14:54:43
Writing application : mkvmerge v32.0.0 ('Astral Progressions') 64-bit
Writing library : libebml v1.3.7 + libmatroska v1.5.0

Video
ID : 1
Format : AVC
Format/Info : Advanced Video Codec
Format profile : High@L3.1
Format settings : CABAC / 4 Ref Frames
Format settings, CABAC : Yes
Format settings, RefFrames : 4 frames
Codec ID : V_MPEG4/ISO/AVC
Duration : 1 h 1 min
Bit rate mode : Constant
Bit rate : 3 262 kb/s
Nominal bit rate : 6 000 kb/s
Width : 1 280 pixels
Height : 720 pixels
Display aspect ratio : 16:9
Frame rate mode : Constant
Frame rate : 23.976 (24000/1001) FPS
Color space : YUV
Chroma subsampling : 4:2:0
Bit depth : 8 bits
Scan type : Progressive
Bits/(Pixel*Frame) : 0.148
Stream size : 1.39 GiB (84%)
Default : Yes
Forced : No
Color range : Limited
Color primaries : BT.709
Transfer characteristics : BT.709
Matrix coefficients : BT.709

Audio
ID : 2
Format : E-AC-3
Format/Info : Enhanced Audio Coding 3
Format settings, Endianness : Big
Codec ID : A_EAC3
Duration : 1 h 1 min
Bit rate mode : Constant
Bit rate : 640 kb/s
Channel(s) : 6 channels
Channel positions : Front: L C R, Side: L R, LFE
Sampling rate : 48.0 kHz
Frame rate : 187.500 FPS (256 SPF)
Compression mode : Lossy
Delay relative to video : 24 ms
Stream size : 280 MiB (16%)
Language : English
Service kind : Complete Main
Default : Yes
Forced : No

Text
ID : 3
Format : UTF-8
Codec ID : S_TEXT/UTF8
Codec ID/Info : UTF-8 Plain Text
Duration : 1 h 0 min
Bit rate : 75 b/s
Count of elements : 1272
Stream size : 33.7 KiB (0%)
Title : SDH
Language : English
Default : No
Forced : No





Gentleman Jack S01E03


Gentleman Jack S01E03


Gentleman Jack S01E03


Gentleman Jack S01E03


Gentleman Jack S01E03

All episodes