Index
# A B C D E F G H I J K L M N O P Q R S T U V W X Y Z
Tags
Language
Tags
May 2024
Su Mo Tu We Th Fr Sa
28 29 30 1 2 3 4
5 6 7 8 9 10 11
12 13 14 15 16 17 18
19 20 21 22 23 24 25
26 27 28 29 30 31 1

Featured TV Shows


Gentleman Jack S01E08

Posted By: Tavaz
720p (HD) / WEBRip IMDb
Gentleman Jack S01E08

Gentleman Jack S01E08
WEBRip | MKV | 1280x640 | English | H264 @ 2616 kbps | E-AC-3 @ 640 kbps | 1 h 0 min | 1.38 GiB
Subtitles: English
Genre: Drama


Set in 1832 West Yorkshire, England and inspired by the true-story and coded journals of Anne Lister, this series follows her attempt to revitalize her inherited home, Shibdhen Hall. Most notably for the time period, a part of Lister’s plan is to help the fate of her own family by taking a wife.

gentleman.jack.s01e08.720p.webrip.x264-tbs.mkv (1.4 GB)



General
Unique ID : 63582890213229114689155535140940333576 (0x2FD59E854866C47C41EFEF522E3AC208)
Complete name : ./gentleman.jack.s01e08.720p.webrip.x264-tbs.mkv
Format : Matroska
Format version : Version 4 / Version 2
File size : 1.38 GiB
Duration : 1 h 0 min
Overall bit rate : 3 258 kb/s
Encoded date : UTC 2019-06-11 02:39:26
Writing application : mkvmerge v29.0.0 ('Like It Or Not') 64-bit
Writing library : libebml v1.3.6 + libmatroska v1.4.9

Video
ID : 1
Format : AVC
Format/Info : Advanced Video Codec
Format profile : High@L4.1
Format settings : CABAC / 5 Ref Frames
Format settings, CABAC : Yes
Format settings, RefFrames : 5 frames
Codec ID : V_MPEG4/ISO/AVC
Duration : 1 h 0 min
Bit rate : 2 616 kb/s
Width : 1 280 pixels
Height : 640 pixels
Display aspect ratio : 2.000
Frame rate mode : Constant
Frame rate : 23.976 (24000/1001) FPS
Color space : YUV
Chroma subsampling : 4:2:0
Bit depth : 8 bits
Scan type : Progressive
Bits/(Pixel*Frame) : 0.133
Stream size : 1.11 GiB (80%)
Writing library : x264 core 157 r2935 545de2f
Encoding settings : cabac=1 / ref=5 / deblock=1:-3:-3 / analyse=0x3:0x113 / me=hex / subme=8 / psy=1 / psy_rd=1.00:0.15 / mixed_ref=1 / me_range=16 / chroma_me=1 / trellis=2 / 8x8dct=1 / cqm=0 / deadzone=21,11 / fast_pskip=1 / chroma_qp_offset=-3 / threads=20 / lookahead_threads=3 / sliced_threads=0 / nr=0 / decimate=1 / interlaced=0 / bluray_compat=0 / constrained_intra=0 / bframes=3 / b_pyramid=2 / b_adapt=2 / b_bias=0 / direct=3 / weightb=1 / open_gop=0 / weightp=2 / keyint=250 / keyint_min=23 / scenecut=40 / intra_refresh=0 / rc_lookahead=50 / rc=crf / mbtree=1 / crf=18.0 / qcomp=0.60 / qpmin=0 / qpmax=69 / qpstep=4 / ip_ratio=1.40 / aq=1:1.00
Language : English
Default : Yes
Forced : No
Color range : Limited
Matrix coefficients : BT.709

Audio
ID : 2
Format : E-AC-3
Format/Info : Enhanced Audio Coding 3
Format settings, Endianness : Big
Codec ID : A_EAC3
Duration : 1 h 0 min
Bit rate mode : Constant
Bit rate : 640 kb/s
Channel(s) : 6 channels
Channel positions : Front: L C R, Side: L R, LFE
Sampling rate : 48.0 kHz
Frame rate : 187.500 FPS (256 SPF)
Compression mode : Lossy
Delay relative to video : 24 ms
Stream size : 278 MiB (20%)
Language : English
Service kind : Complete Main
Default : Yes
Forced : No

Text
ID : 3
Format : UTF-8
Codec ID : S_TEXT/UTF8
Codec ID/Info : UTF-8 Plain Text
Duration : 1 h 0 min
Bit rate : 75 b/s
Count of elements : 1254
Stream size : 33.7 KiB (0%)
Language : English
Default : No
Forced : No





Gentleman Jack S01E08


Gentleman Jack S01E08


Gentleman Jack S01E08


Gentleman Jack S01E08


Gentleman Jack S01E08

All episodes