Index
# A B C D E F G H I J K L M N O P Q R S T U V W X Y Z
Tags
Language
Tags
May 2024
Su Mo Tu We Th Fr Sa
28 29 30 1 2 3 4
5 6 7 8 9 10 11
12 13 14 15 16 17 18
19 20 21 22 23 24 25
26 27 28 29 30 31 1

Featured TV Shows


Gentleman Jack S02E06

Posted By: Tavaz
1080p (FullHD) / HDTV IMDb
Gentleman Jack S02E06

Gentleman Jack S02E06
HDTV | MKV | 1920x1080 | English | H264 @ 2567 kbps | AC-3 @ 384 kbps | 58 min 27 s | 1.23 GiB
Subtitles: English
Genre: Drama


Halifax, West Yorkshire, England, 1832. Anne Lister attempts to revitalize her inherited home, Shibden Hall. Most notably for the time period, a part of her plan is to help the fate of her own family - by taking a wife.

38fa265769684de49226b22abb4171dc.mkv (1.2 GB)



General
Unique ID : 125873988487943745498047018710858718384 (0x5EB272C809BE0FAAFEB050BF9DAFDCB0)
Complete name : ./38fa265769684de49226b22abb4171dc.mkv
Format : Matroska
Format version : Version 4 / Version 2
File size : 1.23 GiB
Duration : 58 min 27 s
Overall bit rate : 3 012 kb/s
Encoded date : UTC 2022-05-15 20:58:53
Writing application : mkv2rls h264-tv
Writing library : mkv2rls h264-tv

Video
ID : 1
Format : AVC
Format/Info : Advanced Video Codec
Format profile : High@L4
Format settings : CABAC / 4 Ref Frames
Format settings, CABAC : Yes
Format settings, RefFrames : 4 frames
Codec ID : V_MPEG4/ISO/AVC
Duration : 58 min 27 s
Bit rate : 2 568 kb/s
Width : 1 920 pixels
Height : 1 080 pixels
Display aspect ratio : 16:9
Frame rate mode : Constant
Frame rate : 25.000 FPS
Standard : Component
Color space : YUV
Chroma subsampling : 4:2:0
Bit depth : 8 bits
Scan type : MBAFF
Scan type, store method : Interleaved fields
Scan order : Top Field First
Bits/(Pixel*Frame) : 0.050
Stream size : 1.05 GiB (85%)
Language : English
Default : Yes
Forced : No
Color range : Limited
Color primaries : BT.709
Transfer characteristics : BT.709
Matrix coefficients : BT.709

Audio
ID : 2
Format : AC-3
Format/Info : Audio Coding 3
Format settings, Endianness : Big
Codec ID : A_AC3
Duration : 58 min 27 s
Bit rate mode : Constant
Bit rate : 384 kb/s
Channel(s) : 6 channels
Channel positions : Front: L C R, Side: L R, LFE
Sampling rate : 48.0 kHz
Frame rate : 31.250 FPS (1536 SPF)
Bit depth : 16 bits
Compression mode : Lossy
Delay relative to video : -1 s 309 ms
Stream size : 161 MiB (13%)
Language : English
Service kind : Complete Main
Default : Yes
Forced : No

Text
ID : 3
Format : DVB Subtitle
Muxing mode : zlib
Codec ID : S_DVBSUB
Codec ID/Info : Picture based subtitle format used on DVBs
Language : English
Default : No
Forced : No





Gentleman Jack S02E06


Gentleman Jack S02E06


Gentleman Jack S02E06


Gentleman Jack S02E06


Gentleman Jack S02E06

All episodes