Index
# A B C D E F G H I J K L M N O P Q R S T U V W X Y Z
Tags
Language
Tags
May 2024
Su Mo Tu We Th Fr Sa
28 29 30 1 2 3 4
5 6 7 8 9 10 11
12 13 14 15 16 17 18
19 20 21 22 23 24 25
26 27 28 29 30 31 1

Featured TV Shows


Gentleman Jack S02E06

Posted By: Tavaz
720p (HD) / WEBRip IMDb
Gentleman Jack S02E06

Gentleman Jack S02E06
WEBRip | MKV | 1280x640 | English | H264 @ 2854 kbps | E-AC-3 @ 640 kbps | 58 min 36 s | 1.43 GiB
Subtitles: English
Genre: Drama


Halifax, West Yorkshire, England, 1832. Anne Lister attempts to revitalize her inherited home, Shibden Hall. Most notably for the time period, a part of her plan is to help the fate of her own family - by taking a wife.

b5a35d59415f4accae0ecde1476d225a.mkv (1.4 GB)



General
Unique ID : 271966180799696273092926950170861764408 (0xCC9AC7F933D03CB94C90BF5E4B43FF38)
Complete name : ./b5a35d59415f4accae0ecde1476d225a.mkv
Format : Matroska
Format version : Version 4 / Version 2
File size : 1.43 GiB
Duration : 58 min 36 s
Overall bit rate : 3 496 kb/s
Writing application : mkvmerge v64.0.0 ('Willows') 64-bit
Writing library : libebml v1.4.2 + libmatroska v1.6.4

Video
ID : 1
Format : AVC
Format/Info : Advanced Video Codec
Format profile : High@L3.1
Format settings : CABAC / 4 Ref Frames
Format settings, CABAC : Yes
Format settings, RefFrames : 4 frames
Codec ID : V_MPEG4/ISO/AVC
Duration : 58 min 36 s
Bit rate mode : Constant
Bit rate : 2 854 kb/s
Nominal bit rate : 6 000 kb/s
Width : 1 280 pixels
Height : 640 pixels
Display aspect ratio : 2.000
Frame rate mode : Constant
Frame rate : 25.000 FPS
Color space : YUV
Chroma subsampling : 4:2:0
Bit depth : 8 bits
Scan type : Progressive
Bits/(Pixel*Frame) : 0.139
Stream size : 1.17 GiB (82%)
Default : Yes
Forced : No
Color range : Limited
Color primaries : BT.709
Transfer characteristics : BT.709
Matrix coefficients : BT.709

Audio
ID : 2
Format : E-AC-3
Format/Info : Enhanced Audio Coding 3
Format settings, Endianness : Big
Codec ID : A_EAC3
Duration : 58 min 36 s
Bit rate mode : Constant
Bit rate : 640 kb/s
Channel(s) : 6 channels
Channel positions : Front: L C R, Side: L R, LFE
Sampling rate : 48.0 kHz
Frame rate : 187.500 FPS (256 SPF)
Compression mode : Lossy
Stream size : 268 MiB (18%)
Language : English
Service kind : Complete Main
Default : Yes
Forced : No

Text #1
ID : 3
Format : UTF-8
Codec ID : S_TEXT/UTF8
Codec ID/Info : UTF-8 Plain Text
Duration : 57 min 30 s
Bit rate : 89 b/s
Count of elements : 1186
Stream size : 37.8 KiB (0%)
Language : English
Default : No
Forced : No

Text #2
ID : 4
Format : UTF-8
Codec ID : S_TEXT/UTF8
Codec ID/Info : UTF-8 Plain Text
Duration : 57 min 30 s
Bit rate : 91 b/s
Count of elements : 1216
Stream size : 38.3 KiB (0%)
Title : SDH
Language : English
Default : No
Forced : No





Gentleman Jack S02E06


Gentleman Jack S02E06


Gentleman Jack S02E06


Gentleman Jack S02E06


Gentleman Jack S02E06

All episodes