Featured TV Shows


Ghostwriter S01E01

Posted By: Tavaz
1080p (FullHD) / WEB-DL IMDb
Ghostwriter S01E01

Ghostwriter S01E01
WEB-DL | MKV | 1920x958 | English | H264 @ 9931 kbps | AC-3 @ 384 kbps | 23 min 54 s | 1.72 GiB
Subtitles: English
Genre: Family


When a ghost haunts a neighborhood bookstore and starts releasing fictional characters into the real world, four kids must team up to solve an exciting mystery surrounding the ghost’s unfinished business.

379c7d89969242468cde94c968497144.mkv (1.7 GB)



General
Unique ID : 274456246835896153033651789658683241928 (0xCE7A59B529118B214522960E1B9A75C8)
Complete name : ./379c7d89969242468cde94c968497144.mkv
Format : Matroska
Format version : Version 4 / Version 2
File size : 1.72 GiB
Duration : 23 min 54 s
Overall bit rate : 10.3 Mb/s
Encoded date : UTC 2019-11-02 18:13:10
Writing application : mkvmerge v34.0.0 ('Sight and Seen') 64-bit
Writing library : libebml v1.3.7 + libmatroska v1.5.0

Video
ID : 1
Format : AVC
Format/Info : Advanced Video Codec
Format profile : High@L4
Format settings : CABAC / 4 Ref Frames
Format settings, CABAC : Yes
Format settings, RefFrames : 4 frames
Codec ID : V_MPEG4/ISO/AVC
Duration : 23 min 54 s
Bit rate : 9 932 kb/s
Width : 1 920 pixels
Height : 958 pixels
Display aspect ratio : 2.004
Frame rate mode : Constant
Frame rate : 23.976 (24000/1001) FPS
Color space : YUV
Chroma subsampling : 4:2:0
Bit depth : 8 bits
Scan type : Progressive
Bits/(Pixel*Frame) : 0.225
Stream size : 1.66 GiB (96%)
Default : Yes
Forced : No
Color range : Limited
Color primaries : BT.709
Transfer characteristics : BT.709
Matrix coefficients : BT.709

Audio
ID : 2
Format : AC-3
Format/Info : Audio Coding 3
Format settings, Endianness : Big
Codec ID : A_AC3
Duration : 23 min 54 s
Bit rate mode : Constant
Bit rate : 384 kb/s
Channel(s) : 6 channels
Channel positions : Front: L C R, Side: L R, LFE
Sampling rate : 48.0 kHz
Frame rate : 31.250 FPS (1536 SPF)
Bit depth : 16 bits
Compression mode : Lossy
Stream size : 65.7 MiB (4%)
Language : English
Service kind : Complete Main
Default : Yes
Forced : No

Text #1
ID : 3
Format : UTF-8
Codec ID : S_TEXT/UTF8
Codec ID/Info : UTF-8 Plain Text
Duration : 21 min 18 s
Bit rate : 79 b/s
Count of elements : 323
Stream size : 12.5 KiB (0%)
Language : English
Default : No
Forced : No

Text #2
ID : 4
Format : UTF-8
Codec ID : S_TEXT/UTF8
Codec ID/Info : UTF-8 Plain Text
Duration : 22 min 18 s
Bit rate : 80 b/s
Count of elements : 346
Stream size : 13.1 KiB (0%)
Title : SDH
Language : English
Default : No
Forced : No





Ghostwriter S01E01


Ghostwriter S01E01


Ghostwriter S01E01


Ghostwriter S01E01


Ghostwriter S01E01

All episodes