Featured TV Shows


Ghostwriter S01E06

Posted By: Tavaz
1080p (FullHD) / WEBRip IMDb
Ghostwriter S01E06

Ghostwriter S01E06
WEBRip | MKV | 1920x958 | French / English | H264 @ 9972 kbps | AC-3 @ 384 kbps | 23 min 23 s | 1.76 GiB
Subtitles: French, English
Genre: Family


When a ghost haunts a neighborhood bookstore and starts releasing fictional characters into the real world, four kids must team up to solve an exciting mystery surrounding the ghost’s unfinished business.

a8e9deb3be6f4c5fb8a8af9a1e0ad670.mkv (1.8 GB)



General
Unique ID : 119912441721100479443755148531711736844 (0x5A364BD52C852071921D76A974C1FC0C)
Complete name : ./a8e9deb3be6f4c5fb8a8af9a1e0ad670.mkv
Format : Matroska
Format version : Version 4 / Version 2
File size : 1.76 GiB
Duration : 23 min 23 s
Overall bit rate : 10.7 Mb/s
Encoded date : UTC 2019-11-18 16:09:27
Writing application : mkvmerge v40.0.0 ('Old Town Road + Pony') 64-bit
Writing library : libebml v1.3.9 + libmatroska v1.5.2

Video
ID : 1
Format : AVC
Format/Info : Advanced Video Codec
Format profile : High@L4
Format settings : CABAC / 4 Ref Frames
Format settings, CABAC : Yes
Format settings, RefFrames : 4 frames
Codec ID : V_MPEG4/ISO/AVC
Duration : 23 min 23 s
Bit rate : 9 972 kb/s
Width : 1 920 pixels
Height : 958 pixels
Display aspect ratio : 2.004
Frame rate mode : Constant
Frame rate : 23.976 (24000/1001) FPS
Color space : YUV
Chroma subsampling : 4:2:0
Bit depth : 8 bits
Scan type : Progressive
Bits/(Pixel*Frame) : 0.226
Stream size : 1.63 GiB (93%)
Default : Yes
Forced : No
Color range : Limited
Color primaries : BT.709
Transfer characteristics : BT.709
Matrix coefficients : BT.709

Audio #1
ID : 2
Format : AC-3
Format/Info : Audio Coding 3
Format settings, Endianness : Big
Codec ID : A_AC3
Duration : 23 min 23 s
Bit rate mode : Constant
Bit rate : 384 kb/s
Channel(s) : 6 channels
Channel positions : Front: L C R, Side: L R, LFE
Sampling rate : 48.0 kHz
Frame rate : 31.250 FPS (1536 SPF)
Bit depth : 16 bits
Compression mode : Lossy
Stream size : 64.2 MiB (4%)
Title : French
Language : French
Service kind : Complete Main
Default : Yes
Forced : No

Audio #2
ID : 3
Format : AC-3
Format/Info : Audio Coding 3
Format settings, Endianness : Big
Codec ID : A_AC3
Duration : 23 min 23 s
Bit rate mode : Constant
Bit rate : 384 kb/s
Channel(s) : 6 channels
Channel positions : Front: L C R, Side: L R, LFE
Sampling rate : 48.0 kHz
Frame rate : 31.250 FPS (1536 SPF)
Bit depth : 16 bits
Compression mode : Lossy
Stream size : 64.2 MiB (4%)
Title : English
Language : English
Service kind : Complete Main
Default : No
Forced : No

Text #1
ID : 4
Format : UTF-8
Codec ID : S_TEXT/UTF8
Codec ID/Info : UTF-8 Plain Text
Duration : 15 min 42 s
Bit rate : 0 b/s
Count of elements : 2
Stream size : 40.0 Bytes (0%)
Title : French (Forced)
Language : French
Default : Yes
Forced : Yes

Text #2
ID : 5
Format : UTF-8
Codec ID : S_TEXT/UTF8
Codec ID/Info : UTF-8 Plain Text
Duration : 22 min 5 s
Bit rate : 69 b/s
Count of elements : 360
Stream size : 11.3 KiB (0%)
Title : French
Language : French
Default : No
Forced : No

Text #3
ID : 6
Format : UTF-8
Codec ID : S_TEXT/UTF8
Codec ID/Info : UTF-8 Plain Text
Duration : 22 min 56 s
Bit rate : 75 b/s
Count of elements : 381
Stream size : 12.7 KiB (0%)
Title : French (SDH)
Language : French
Default : No
Forced : No

Text #4
ID : 7
Format : UTF-8
Codec ID : S_TEXT/UTF8
Codec ID/Info : UTF-8 Plain Text
Duration : 21 min 57 s
Bit rate : 82 b/s
Count of elements : 350
Stream size : 13.3 KiB (0%)
Title : English
Language : English
Default : No
Forced : No

Text #5
ID : 8
Format : UTF-8
Codec ID : S_TEXT/UTF8
Codec ID/Info : UTF-8 Plain Text
Duration : 21 min 57 s
Bit rate : 85 b/s
Count of elements : 365
Stream size : 13.8 KiB (0%)
Title : English (SDH)
Language : English
Default : No
Forced : No





Ghostwriter S01E06


Ghostwriter S01E06


Ghostwriter S01E06


Ghostwriter S01E06


Ghostwriter S01E06

All episodes