Featured TV Shows


Ghostwriter S01E07

Posted By: Tavaz
1080p (FullHD) / WEB-DL IMDb
Ghostwriter S01E07

Ghostwriter S01E07
WEB-DL | MKV | 1920x958 | English | H264 @ 9932 kbps | AC-3 @ 384 kbps | 23 min 27 s | 1.69 GiB
Subtitles: Swedish, Estonian, Telugu, Vietnamese, Slovenian, Hindi, Dutch, Danish, Bulgarian, Hungarian, Ukrainian, Lithuanian, Malay, French, Norwegian, Russian, Thai, Tamil, Finnish, Spanish, Indonesian, Greek, Latvian, English, Italian, Portuguese, Chinese, Czech, Japanese, German, Slovak, Hebrew, Polish, Arabic
Genre: Family


When a ghost haunts a neighborhood bookstore and starts releasing fictional characters into the real world, four kids must team up to solve an exciting mystery surrounding the ghost’s unfinished business.

513db29f363645ba907e24efdc2eda08.mkv (1.7 GB)



General
Unique ID : 187765539886473293920556194111677025392 (0x8D4253DC39FAEE02DE0C18528A2C4C70)
Complete name : ./513db29f363645ba907e24efdc2eda08.mkv
Format : Matroska
Format version : Version 4 / Version 2
File size : 1.69 GiB
Duration : 23 min 27 s
Overall bit rate : 10.3 Mb/s
Encoded date : UTC 2019-11-06 18:17:33
Writing application : mkvmerge v25.0.0 ('Prog Noir') 32-bit
Writing library : libebml v1.3.6 + libmatroska v1.4.9

Video
ID : 1
Format : AVC
Format/Info : Advanced Video Codec
Format profile : High@L4
Format settings : CABAC / 4 Ref Frames
Format settings, CABAC : Yes
Format settings, RefFrames : 4 frames
Codec ID : V_MPEG4/ISO/AVC
Duration : 23 min 27 s
Bit rate : 9 932 kb/s
Width : 1 920 pixels
Height : 958 pixels
Display aspect ratio : 2.004
Frame rate mode : Constant
Frame rate : 23.976 (24000/1001) FPS
Color space : YUV
Chroma subsampling : 4:2:0
Bit depth : 8 bits
Scan type : Progressive
Bits/(Pixel*Frame) : 0.225
Stream size : 1.63 GiB (96%)
Default : Yes
Forced : No
Color range : Limited
Color primaries : BT.709
Transfer characteristics : BT.709
Matrix coefficients : BT.709

Audio
ID : 2
Format : AC-3
Format/Info : Audio Coding 3
Format settings, Endianness : Big
Codec ID : A_AC3
Duration : 23 min 27 s
Bit rate mode : Constant
Bit rate : 384 kb/s
Channel(s) : 6 channels
Channel positions : Front: L C R, Side: L R, LFE
Sampling rate : 48.0 kHz
Frame rate : 31.250 FPS (1536 SPF)
Bit depth : 16 bits
Compression mode : Lossy
Stream size : 64.4 MiB (4%)
Title : English
Language : English
Service kind : Complete Main
Default : Yes
Forced : No

Text #1
ID : 3
Format : UTF-8
Codec ID : S_TEXT/UTF8
Codec ID/Info : UTF-8 Plain Text
Duration : 22 min 21 s
Bit rate : 76 b/s
Count of elements : 351
Stream size : 12.5 KiB (0%)
Title : English
Language : English
Default : No
Forced : No

Text #2
ID : 4
Format : UTF-8
Codec ID : S_TEXT/UTF8
Codec ID/Info : UTF-8 Plain Text
Duration : 22 min 21 s
Bit rate : 80 b/s
Count of elements : 377
Stream size : 13.1 KiB (0%)
Title : English [SDH]
Language : English
Default : No
Forced : No

Text #3
ID : 5
Format : UTF-8
Codec ID : S_TEXT/UTF8
Codec ID/Info : UTF-8 Plain Text
Duration : 23 min 20 s
Bit rate : 102 b/s
Count of elements : 354
Stream size : 17.6 KiB (0%)
Title : Arabic
Language : Arabic
Default : No
Forced : No

Text #4
ID : 6
Format : UTF-8
Codec ID : S_TEXT/UTF8
Codec ID/Info : UTF-8 Plain Text
Duration : 23 min 20 s
Bit rate : 94 b/s
Count of elements : 313
Stream size : 16.2 KiB (0%)
Title : Bulgarian
Language : Bulgarian
Default : No
Forced : No

Text #5
ID : 7
Format : UTF-8
Codec ID : S_TEXT/UTF8
Codec ID/Info : UTF-8 Plain Text
Duration : 23 min 20 s
Bit rate : 67 b/s
Count of elements : 354
Stream size : 11.6 KiB (0%)
Title : Czech
Language : Czech
Default : No
Forced : No

Text #6
ID : 8
Format : UTF-8
Codec ID : S_TEXT/UTF8
Codec ID/Info : UTF-8 Plain Text
Duration : 23 min 20 s
Bit rate : 65 b/s
Count of elements : 354
Stream size : 11.2 KiB (0%)
Title : Danish
Language : Danish
Default : No
Forced : No

Text #7
ID : 9
Format : UTF-8
Codec ID : S_TEXT/UTF8
Codec ID/Info : UTF-8 Plain Text
Duration : 23 min 20 s
Bit rate : 52 b/s
Count of elements : 317
Stream size : 9.02 KiB (0%)
Title : Dutch
Language : Dutch
Default : No
Forced : No

Text #8
ID : 10
Format : UTF-8
Codec ID : S_TEXT/UTF8
Codec ID/Info : UTF-8 Plain Text
Duration : 23 min 20 s
Bit rate : 56 b/s
Count of elements : 354
Stream size : 9.59 KiB (0%)
Title : Estonian
Language : Estonian
Default : No
Forced : No

Text #9
ID : 11
Format : UTF-8
Codec ID : S_TEXT/UTF8
Codec ID/Info : UTF-8 Plain Text
Duration : 23 min 20 s
Bit rate : 59 b/s
Count of elements : 354
Stream size : 10.2 KiB (0%)
Title : Finnish
Language : Finnish
Default : No
Forced : No

Text #10
ID : 12
Format : UTF-8
Codec ID : S_TEXT/UTF8
Codec ID/Info : UTF-8 Plain Text
Duration : 21 min 41 s
Bit rate : 60 b/s
Count of elements : 324
Stream size : 9.66 KiB (0%)
Title : French
Language : French
Default : No
Forced : No

Text #11
ID : 13
Format : UTF-8
Codec ID : S_TEXT/UTF8
Codec ID/Info : UTF-8 Plain Text
Duration : 22 min 39 s
Bit rate : 75 b/s
Count of elements : 280
Stream size : 12.6 KiB (0%)
Title : German
Language : German
Default : No
Forced : No

Text #12
ID : 14
Format : UTF-8
Codec ID : S_TEXT/UTF8
Codec ID/Info : UTF-8 Plain Text
Duration : 23 min 20 s
Bit rate : 102 b/s
Count of elements : 354
Stream size : 17.5 KiB (0%)
Title : Greek
Language : Greek
Default : No
Forced : No

Text #13
ID : 15
Format : UTF-8
Codec ID : S_TEXT/UTF8
Codec ID/Info : UTF-8 Plain Text
Duration : 23 min 20 s
Bit rate : 97 b/s
Count of elements : 354
Stream size : 16.6 KiB (0%)
Title : Hebrew
Language : Hebrew
Default : No
Forced : No

Text #14
ID : 16
Format : UTF-8
Codec ID : S_TEXT/UTF8
Codec ID/Info : UTF-8 Plain Text
Duration : 23 min 20 s
Bit rate : 183 b/s
Count of elements : 354
Stream size : 31.3 KiB (0%)
Title : Hindi
Language : Hindi
Default : No
Forced : No

Text #15
ID : 17
Format : UTF-8
Codec ID : S_TEXT/UTF8
Codec ID/Info : UTF-8 Plain Text
Duration : 23 min 20 s
Bit rate : 58 b/s
Count of elements : 354
Stream size : 10.0 KiB (0%)
Title : Hungarian
Language : Hungarian
Default : No
Forced : No

Text #16
ID : 18
Format : UTF-8
Codec ID : S_TEXT/UTF8
Codec ID/Info : UTF-8 Plain Text
Duration : 22 min 34 s
Bit rate : 63 b/s
Count of elements : 342
Stream size : 10.4 KiB (0%)
Title : Indonesian
Language : Indonesian
Default : No
Forced : No

Text #17
ID : 19
Format : UTF-8
Codec ID : S_TEXT/UTF8
Codec ID/Info : UTF-8 Plain Text
Duration : 21 min 40 s
Bit rate : 70 b/s
Count of elements : 294
Stream size : 11.2 KiB (0%)
Title : Italian
Language : Italian
Default : No
Forced : No

Text #18
ID : 20
Format : UTF-8
Codec ID : S_TEXT/UTF8
Codec ID/Info : UTF-8 Plain Text
Duration : 23 min 25 s
Bit rate : 57 b/s
Count of elements : 318
Stream size : 9.87 KiB (0%)
Title : Japanese
Language : Japanese
Default : No
Forced : No

Text #19
ID : 21
Format : UTF-8
Codec ID : S_TEXT/UTF8
Codec ID/Info : UTF-8 Plain Text
Duration : 23 min 20 s
Bit rate : 73 b/s
Count of elements : 354
Stream size : 12.6 KiB (0%)
Title : Lithuanian
Language : Lithuanian
Default : No
Forced : No

Text #20
ID : 22
Format : UTF-8
Codec ID : S_TEXT/UTF8
Codec ID/Info : UTF-8 Plain Text
Duration : 23 min 20 s
Bit rate : 67 b/s
Count of elements : 354
Stream size : 11.5 KiB (0%)
Title : Latvian
Language : Latvian
Default : No
Forced : No

Text #21
ID : 23
Format : UTF-8
Codec ID : S_TEXT/UTF8
Codec ID/Info : UTF-8 Plain Text
Duration : 23 min 20 s
Bit rate : 59 b/s
Count of elements : 352
Stream size : 10.2 KiB (0%)
Title : Malay
Language : Malay
Default : No
Forced : No

Text #22
ID : 24
Format : UTF-8
Codec ID : S_TEXT/UTF8
Codec ID/Info : UTF-8 Plain Text
Duration : 23 min 20 s
Bit rate : 61 b/s
Count of elements : 353
Stream size : 10.5 KiB (0%)
Title : Simplified
Language : Chinese
Default : No
Forced : No

Text #23
ID : 25
Format : UTF-8
Codec ID : S_TEXT/UTF8
Codec ID/Info : UTF-8 Plain Text
Duration : 23 min 20 s
Bit rate : 63 b/s
Count of elements : 354
Stream size : 10.8 KiB (0%)
Title : Traditional
Language : Chinese
Default : No
Forced : No

Text #24
ID : 26
Format : UTF-8
Codec ID : S_TEXT/UTF8
Codec ID/Info : UTF-8 Plain Text
Duration : 23 min 20 s
Bit rate : 64 b/s
Count of elements : 354
Stream size : 11.0 KiB (0%)
Title : (Yue Chinese)
Language : Chinese
Default : No
Forced : No

Text #25
ID : 27
Format : UTF-8
Codec ID : S_TEXT/UTF8
Codec ID/Info : UTF-8 Plain Text
Duration : 23 min 20 s
Bit rate : 57 b/s
Count of elements : 354
Stream size : 9.88 KiB (0%)
Title : Norwegian
Language : Norwegian
Default : No
Forced : No

Text #26
ID : 28
Format : UTF-8
Codec ID : S_TEXT/UTF8
Codec ID/Info : UTF-8 Plain Text
Duration : 23 min 20 s
Bit rate : 59 b/s
Count of elements : 354
Stream size : 10.2 KiB (0%)
Title : Polish
Language : Polish
Default : No
Forced : No

Text #27
ID : 29
Format : UTF-8
Codec ID : S_TEXT/UTF8
Codec ID/Info : UTF-8 Plain Text
Duration : 23 min 20 s
Bit rate : 73 b/s
Count of elements : 353
Stream size : 12.6 KiB (0%)
Title : Portuguese
Language : Portuguese
Default : No
Forced : No

Text #28
ID : 30
Format : UTF-8
Codec ID : S_TEXT/UTF8
Codec ID/Info : UTF-8 Plain Text
Duration : 23 min 20 s
Bit rate : 57 b/s
Count of elements : 354
Stream size : 9.81 KiB (0%)
Title : Brazilian Portuguese
Language : Portuguese
Default : No
Forced : No

Text #29
ID : 31
Format : UTF-8
Codec ID : S_TEXT/UTF8
Codec ID/Info : UTF-8 Plain Text
Duration : 23 min 20 s
Bit rate : 97 b/s
Count of elements : 354
Stream size : 16.7 KiB (0%)
Title : Russian
Language : Russian
Default : No
Forced : No

Text #30
ID : 32
Format : UTF-8
Codec ID : S_TEXT/UTF8
Codec ID/Info : UTF-8 Plain Text
Duration : 23 min 20 s
Bit rate : 52 b/s
Count of elements : 354
Stream size : 9.03 KiB (0%)
Title : Slovak
Language : Slovak
Default : No
Forced : No

Text #31
ID : 33
Format : UTF-8
Codec ID : S_TEXT/UTF8
Codec ID/Info : UTF-8 Plain Text
Duration : 23 min 20 s
Bit rate : 50 b/s
Count of elements : 328
Stream size : 8.57 KiB (0%)
Title : Slovenian
Language : Slovenian
Default : No
Forced : No

Text #32
ID : 34
Format : UTF-8
Codec ID : S_TEXT/UTF8
Codec ID/Info : UTF-8 Plain Text
Duration : 23 min 20 s
Bit rate : 68 b/s
Count of elements : 350
Stream size : 11.6 KiB (0%)
Title : Spanish
Language : Spanish
Default : No
Forced : No

Text #33
ID : 35
Format : UTF-8
Codec ID : S_TEXT/UTF8
Codec ID/Info : UTF-8 Plain Text
Duration : 23 min 20 s
Bit rate : 66 b/s
Count of elements : 337
Stream size : 11.4 KiB (0%)
Title : European Spanish
Language : Spanish
Default : No
Forced : No

Text #34
ID : 36
Format : UTF-8
Codec ID : S_TEXT/UTF8
Codec ID/Info : UTF-8 Plain Text
Duration : 23 min 20 s
Bit rate : 64 b/s
Count of elements : 353
Stream size : 11.0 KiB (0%)
Title : Swedish
Language : Swedish
Default : No
Forced : No

Text #35
ID : 37
Format : UTF-8
Codec ID : S_TEXT/UTF8
Codec ID/Info : UTF-8 Plain Text
Duration : 23 min 20 s
Bit rate : 233 b/s
Count of elements : 354
Stream size : 40.0 KiB (0%)
Title : Tamil
Language : Tamil
Default : No
Forced : No

Text #36
ID : 38
Format : UTF-8
Codec ID : S_TEXT/UTF8
Codec ID/Info : UTF-8 Plain Text
Duration : 23 min 20 s
Bit rate : 195 b/s
Count of elements : 354
Stream size : 33.4 KiB (0%)
Title : Telugu
Language : Telugu
Default : No
Forced : No

Text #37
ID : 39
Format : UTF-8
Codec ID : S_TEXT/UTF8
Codec ID/Info : UTF-8 Plain Text
Duration : 23 min 20 s
Bit rate : 166 b/s
Count of elements : 353
Stream size : 28.5 KiB (0%)
Title : Thai
Language : Thai
Default : No
Forced : No

Text #38
ID : 40
Format : UTF-8
Codec ID : S_TEXT/UTF8
Codec ID/Info : UTF-8 Plain Text
Duration : 23 min 20 s
Bit rate : 88 b/s
Count of elements : 354
Stream size : 15.2 KiB (0%)
Title : Ukrainian
Language : Ukrainian
Default : No
Forced : No

Text #39
ID : 41
Format : UTF-8
Codec ID : S_TEXT/UTF8
Codec ID/Info : UTF-8 Plain Text
Duration : 23 min 20 s
Bit rate : 77 b/s
Count of elements : 354
Stream size : 13.3 KiB (0%)
Title : Vietnamese
Language : Vietnamese
Default : No
Forced : No





Ghostwriter S01E07


Ghostwriter S01E07


Ghostwriter S01E07


Ghostwriter S01E07


Ghostwriter S01E07

All episodes