Featured TV Shows


Glee S02E20

Posted By: Tavaz
1080p (FullHD) / WEB-DL IMDb
Glee S02E20

Glee S02E20
WEB-DL | MKV | 1920x1080 | English | H265 @ 8109 kbps | E-AC-3 @ 640 kbps | 43 min 19 s | 2.65 GiB
Subtitles: English
Genre: Comedy, Drama

Glee is an American teen musical comedy-drama television series that airs on the Fox network in the United States. It focuses on the reconstituted William McKinley High School glee club, New Directions, which competes on the show choir competition circuit while its disparate members deal with relationships, sexuality, social issues, and learning to become an effective team.

Glee.S02E20.Prom.Queen.1080p.AMZN.WEB-DL.DD.5.1.H.265-SiGMA.mkv (2.6 GB)



General
Unique ID : 135011020397610968348056886925102756946 (0x65922D3C403127A2D849189D260D3452)
Complete name : ./Glee.S02E20.Prom.Queen.1080p.AMZN.WEB-DL.DD.5.1.H.265-SiGMA.mkv
Format : Matroska
Format version : Version 4 / Version 2
File size : 2.65 GiB
Duration : 43 min 19 s
Overall bit rate : 8 751 kb/s
Encoded date : UTC 2018-06-24 09:26:11
Writing application : mkvmerge v24.0.0 ('Beyond The Pale') 64-bit
Writing library : libebml v1.3.6 + libmatroska v1.4.9

Video
ID : 1
Format : HEVC
Format/Info : High Efficiency Video Coding
Format profile : Main@L4@Main
Codec ID : V_MPEGH/ISO/HEVC
Duration : 43 min 19 s
Bit rate : 8 109 kb/s
Width : 1 920 pixels
Height : 1 080 pixels
Display aspect ratio : 16:9
Frame rate mode : Constant
Frame rate : 23.976 (24000/1001) FPS
Standard : NTSC
Color space : YUV
Chroma subsampling : 4:2:0
Bit depth : 8 bits
Bits/(Pixel*Frame) : 0.163
Stream size : 2.45 GiB (93%)
Writing library : x265 0.0:[Linux][GCC 4.8.2][64 bit] 8bit+10bit+12bit
Encoding settings : cpuid=1173503 / frame-threads=1 / wpp / no-pmode / no-pme / psnr / ssim / log-level=2 / csvfn=/apollo/env/YoshiEncodingWorkflowActivitiesLinuxEncoding/var/tmp/65763882/764f8102-5e4a-4b28-bbbb-bc699cd546c0/674fa843-4c71-4569-b635-75fed21e35b3_video_1080p_9000kbps.csv / csv-log-level=2 / input-csp=1 / input-res=1920x1080 / interlace=0 / total-frames=0 / level-idc=40 / high-tier=1 / uhd-bd=0 / ref=5 / no-allow-non-conformance / no-repeat-headers / annexb / no-aud / no-hrd / info / hash=0 / no-temporal-layers / no-open-gop / min-keyint=61 / keyint=120 / bframes=5 / b-adapt=2 / b-pyramid / bframe-bias=0 / rc-lookahead=120 / lookahead-slices=0 / scenecut=0 / no-intra-refresh / ctu=64 / min-cu-size=8 / rect / no-amp / max-tu-size=32 / tu-inter-depth=1 / tu-intra-depth=1 / limit-tu=0 / rdoq-level=2 / dynamic-rd=0.00 / no-ssim-rd / signhide / no-tskip / nr-intra=0 / nr-inter=200 / no-constrained-intra / strong-intra-smoothing / max-merge=3 / limit-refs=3 / limit-modes / me=3 / subme=3 / merange=57 / temporal-mvp / weightp / no-weightb / no-analyze-src-pics / deblock=0:0 / sao / no-sao-non-deblock / rd=4 / no-early-skip / rskip / no-fast-intra / no-tskip-fast / no-cu-lossless / no-b-intra / rdpenalty=0 / psy-rd=2.00 / psy-rdoq=1.00 / no-rd-refine / analysis-reuse-mode=0 / no-lossless / cbqpoffs=0 / crqpoffs=0 / rc=crf / crf=21.5 / qcomp=0.60 / qpstep=4 / stats-write=0 / stats-read=0 / vbv-maxrate=9000 / vbv-bufsize=12000 / vbv-init=0.9 / crf-max=0.0 / crf-min=0.0 / ipratio=1.40 / pbratio=1.30 / aq-mode=3 / aq-strength=2.00 / cutree / zone-count=0 / no-strict-cbr / qg-size=32 / no-rc-grain / qpmax=69 / qpmin=0 / no-const-vbv / sar=1 / overscan=0 / videoformat=2 / range=0 / colorprim=1 / transfer=1 / colormatrix=1 / chromaloc=0 / display-window=0 / max-cll=0,0 / min-luma=0 / max-luma=255 / log2-max-poc-lsb=8 / vui-timing-info / vui-hrd-info / slices=1 / opt-qp-pps / opt-ref-list-length-pps / no-multi-pass-opt-rps / scenecut-bias=0.05 / no-opt-cu-delta-qp / no-aq-motion / no-hdr / no-hdr-opt / no-dhdr10-opt / analysis-reuse-level=5 / scale-factor=0 / refine-intra=0 / refine-inter=0 / refine-mv=0 / no-limit-sao / ctu-info=0
Default : Yes
Forced : No
Color range : Limited
Color primaries : BT.709
Transfer characteristics : BT.709
Matrix coefficients : BT.709

Audio
ID : 2
Format : E-AC-3
Format/Info : Enhanced Audio Coding 3
Format settings, Endianness : Big
Codec ID : A_EAC3
Duration : 43 min 19 s
Bit rate mode : Constant
Bit rate : 640 kb/s
Channel(s) : 6 channels
Channel positions : Front: L C R, Side: L R, LFE
Sampling rate : 48.0 kHz
Frame rate : 187.500 FPS (256 SPF)
Compression mode : Lossy
Stream size : 198 MiB (7%)
Language : English
Service kind : Complete Main
Default : Yes
Forced : No

Text
ID : 3
Format : UTF-8
Codec ID : S_TEXT/UTF8
Codec ID/Info : UTF-8 Plain Text
Duration : 43 min 7 s
Bit rate : 98 b/s
Count of elements : 782
Stream size : 31.3 KiB (0%)
Language : English
Default : No
Forced : No





Glee S02E20


Glee S02E20


Glee S02E20


Glee S02E20


Glee S02E20

All episodes