Featured TV Shows


Glee S05E19

Posted By: Tavaz
1080p (FullHD) / WEB-DL IMDb
Glee S05E19

Glee S05E19
WEB-DL | MKV | 1920x1080 | English | H265 @ 7947 kbps | E-AC-3 @ 640 kbps | 43 min 49 s | 2.63 GiB
Subtitles: English
Genre: Comedy, Drama

Glee is an American teen musical comedy-drama television series that airs on the Fox network in the United States. It focuses on the reconstituted William McKinley High School glee club, New Directions, which competes on the show choir competition circuit while its disparate members deal with relationships, sexuality, social issues, and learning to become an effective team.

Glee.S05E19.Old.Dog.New.Tricks.1080p.AMZN.WEB-DL.DD.5.1.H.265-SiGMA.mkv (2.6 GB)



General
Unique ID : 239067072711697560329325598759581651017 (0xB3DAA4B634C931E324B309A592B01049)
Complete name : ./Glee.S05E19.Old.Dog.New.Tricks.1080p.AMZN.WEB-DL.DD.5.1.H.265-SiGMA.mkv
Format : Matroska
Format version : Version 4 / Version 2
File size : 2.63 GiB
Duration : 43 min 49 s
Overall bit rate : 8 591 kb/s
Encoded date : UTC 2018-06-25 03:21:12
Writing application : mkvmerge v24.0.0 ('Beyond The Pale') 64-bit
Writing library : libebml v1.3.6 + libmatroska v1.4.9

Video
ID : 1
Format : HEVC
Format/Info : High Efficiency Video Coding
Format profile : Main@L4@Main
Codec ID : V_MPEGH/ISO/HEVC
Duration : 43 min 49 s
Bit rate : 7 948 kb/s
Width : 1 920 pixels
Height : 1 080 pixels
Display aspect ratio : 16:9
Frame rate mode : Constant
Frame rate : 23.976 (24000/1001) FPS
Standard : NTSC
Color space : YUV
Chroma subsampling : 4:2:0
Bit depth : 8 bits
Bits/(Pixel*Frame) : 0.160
Stream size : 2.43 GiB (93%)
Default : Yes
Forced : No
Color range : Limited
Color primaries : BT.709
Transfer characteristics : BT.709
Matrix coefficients : BT.709

Audio
ID : 2
Format : E-AC-3
Format/Info : Enhanced Audio Coding 3
Format settings, Endianness : Big
Codec ID : A_EAC3
Duration : 43 min 49 s
Bit rate mode : Constant
Bit rate : 640 kb/s
Channel(s) : 6 channels
Channel positions : Front: L C R, Side: L R, LFE
Sampling rate : 48.0 kHz
Frame rate : 187.500 FPS (256 SPF)
Compression mode : Lossy
Stream size : 201 MiB (7%)
Language : English
Service kind : Complete Main
Default : Yes
Forced : No

Text #1
ID : 3
Format : UTF-8
Codec ID : S_TEXT/UTF8
Codec ID/Info : UTF-8 Plain Text
Duration : 43 min 8 s
Bit rate : 101 b/s
Count of elements : 989
Stream size : 32.1 KiB (0%)
Language : English
Default : No
Forced : No

Text #2
ID : 4
Format : UTF-8
Codec ID : S_TEXT/UTF8
Codec ID/Info : UTF-8 Plain Text
Duration : 43 min 8 s
Bit rate : 101 b/s
Count of elements : 989
Stream size : 32.1 KiB (0%)
Language : English
Default : No
Forced : No

Text #3
ID : 5
Format : UTF-8
Codec ID : S_TEXT/UTF8
Codec ID/Info : UTF-8 Plain Text
Duration : 43 min 8 s
Bit rate : 101 b/s
Count of elements : 989
Stream size : 32.1 KiB (0%)
Language : English
Default : No
Forced : No

Text #4
ID : 6
Format : UTF-8
Codec ID : S_TEXT/UTF8
Codec ID/Info : UTF-8 Plain Text
Duration : 43 min 8 s
Bit rate : 101 b/s
Count of elements : 989
Stream size : 32.1 KiB (0%)
Language : English
Default : No
Forced : No





Glee S05E19


Glee S05E19


Glee S05E19


Glee S05E19


Glee S05E19

All episodes