Featured TV Shows


Glee S06E04

Posted By: Tavaz
1080p (FullHD) / WEB-DL IMDb
Glee S06E04

Glee S06E04
WEB-DL | MKV | 1920x1080 | English | H265 @ 8760 kbps | E-AC-3 @ 640 kbps | 42 min 41 s | 2.80 GiB
Subtitles: English
Genre: Comedy, Drama

Glee is an American teen musical comedy-drama television series that airs on the Fox network in the United States. It focuses on the reconstituted William McKinley High School glee club, New Directions, which competes on the show choir competition circuit while its disparate members deal with relationships, sexuality, social issues, and learning to become an effective team.

Glee.S06E04.The.Hurt.Locker.1080p.AMZN.WEB-DL.DD.5.1.H.265-SiGMA.mkv (2.8 GB)



General
Unique ID : 198044296802501295199502184250241749304 (0x94FDF1B3FDDEA437C7E1F161C5909138)
Complete name : ./Glee.S06E04.The.Hurt.Locker.1080p.AMZN.WEB-DL.DD.5.1.H.265-SiGMA.mkv
Format : Matroska
Format version : Version 4 / Version 2
File size : 2.80 GiB
Duration : 42 min 41 s
Overall bit rate : 9 403 kb/s
Encoded date : UTC 2018-06-25 05:36:50
Writing application : mkvmerge v24.0.0 ('Beyond The Pale') 64-bit
Writing library : libebml v1.3.6 + libmatroska v1.4.9

Video
ID : 1
Format : HEVC
Format/Info : High Efficiency Video Coding
Format profile : Main@L4@Main
Codec ID : V_MPEGH/ISO/HEVC
Duration : 42 min 41 s
Bit rate : 8 761 kb/s
Width : 1 920 pixels
Height : 1 080 pixels
Display aspect ratio : 16:9
Frame rate mode : Constant
Frame rate : 23.976 (24000/1001) FPS
Standard : NTSC
Color space : YUV
Chroma subsampling : 4:2:0
Bit depth : 8 bits
Bits/(Pixel*Frame) : 0.176
Stream size : 2.61 GiB (93%)
Default : Yes
Forced : No
Color range : Limited
Color primaries : BT.709
Transfer characteristics : BT.709
Matrix coefficients : BT.709

Audio
ID : 2
Format : E-AC-3
Format/Info : Enhanced Audio Coding 3
Format settings, Endianness : Big
Codec ID : A_EAC3
Duration : 42 min 41 s
Bit rate mode : Constant
Bit rate : 640 kb/s
Channel(s) : 6 channels
Channel positions : Front: L C R, Side: L R, LFE
Sampling rate : 48.0 kHz
Frame rate : 187.500 FPS (256 SPF)
Compression mode : Lossy
Stream size : 195 MiB (7%)
Language : English
Service kind : Complete Main
Default : Yes
Forced : No

Text #1
ID : 3
Format : UTF-8
Codec ID : S_TEXT/UTF8
Codec ID/Info : UTF-8 Plain Text
Duration : 41 min 58 s
Bit rate : 105 b/s
Count of elements : 1033
Stream size : 32.3 KiB (0%)
Language : English
Default : No
Forced : No

Text #2
ID : 4
Format : UTF-8
Codec ID : S_TEXT/UTF8
Codec ID/Info : UTF-8 Plain Text
Duration : 41 min 58 s
Bit rate : 105 b/s
Count of elements : 1033
Stream size : 32.3 KiB (0%)
Language : English
Default : No
Forced : No

Text #3
ID : 5
Format : UTF-8
Codec ID : S_TEXT/UTF8
Codec ID/Info : UTF-8 Plain Text
Duration : 41 min 58 s
Bit rate : 105 b/s
Count of elements : 1033
Stream size : 32.3 KiB (0%)
Language : English
Default : No
Forced : No

Text #4
ID : 6
Format : UTF-8
Codec ID : S_TEXT/UTF8
Codec ID/Info : UTF-8 Plain Text
Duration : 41 min 58 s
Bit rate : 105 b/s
Count of elements : 1033
Stream size : 32.3 KiB (0%)
Language : English
Default : No
Forced : No





Glee S06E04


Glee S06E04


Glee S06E04


Glee S06E04


Glee S06E04

All episodes