Please register here if you want to download anything!

If domain in your address bar is different from the list below
PLEASE LEAVE THAT SITE IMMEDIATELY
❗IT'S A DANGEROUS FAKE❗



Spicy Magazines for Men! ;-)

Featured TV Shows


God Friended Me S01E15

Posted By: Tavaz
720p (HD) / WEB-DL IMDb
God Friended Me S01E15

God Friended Me S01E15
WEB-DL | MKV | 1280x720 | English | H264 @ 2743 kbps | E-AC-3 @ 640 kbps | 43 min 33 s | 1.03 GiB
Subtitles: English
Genre: Drama


A self-proclaimed "pesky atheist" is encouraged to help strangers by someone claiming to be God who friends him on Facebook.

3059cd6ade334385b553f00164c5fa66.mkv (1.0 GB)



General
Unique ID : 285087376570316098157587382830713535679 (0xD679D4DF2C69BD77AC5151B2B96BFCBF)
Complete name : ./3059cd6ade334385b553f00164c5fa66.mkv
Format : Matroska
Format version : Version 4 / Version 2
File size : 1.03 GiB
Duration : 43 min 33 s
Overall bit rate : 3 385 kb/s
Encoded date : UTC 2019-03-04 07:50:31
Writing application : mkvmerge v19.0.0 ('Brave Captain') 64-bit
Writing library : libebml v1.3.5 + libmatroska v1.4.8

Video
ID : 1
Format : AVC
Format/Info : Advanced Video Codec
Format profile : High@L3.1
Format settings : CABAC / 5 Ref Frames
Format settings, CABAC : Yes
Format settings, RefFrames : 5 frames
Codec ID : V_MPEG4/ISO/AVC
Duration : 43 min 33 s
Bit rate : 2 743 kb/s
Width : 1 280 pixels
Height : 720 pixels
Display aspect ratio : 16:9
Frame rate mode : Constant
Frame rate : 24.000 FPS
Color space : YUV
Chroma subsampling : 4:2:0
Bit depth : 8 bits
Scan type : Progressive
Bits/(Pixel*Frame) : 0.124
Stream size : 855 MiB (81%)
Default : Yes
Forced : No
Color range : Limited
Color primaries : BT.709
Transfer characteristics : BT.709
Matrix coefficients : BT.709

Audio
ID : 2
Format : E-AC-3
Format/Info : Enhanced Audio Coding 3
Format settings, Endianness : Big
Codec ID : A_EAC3
Duration : 43 min 33 s
Bit rate mode : Constant
Bit rate : 640 kb/s
Channel(s) : 6 channels
Channel positions : Front: L C R, Side: L R, LFE
Sampling rate : 48.0 kHz
Frame rate : 187.500 FPS (256 SPF)
Compression mode : Lossy
Stream size : 199 MiB (19%)
Language : English
Service kind : Complete Main
Default : Yes
Forced : No

Text #1
ID : 3
Format : UTF-8
Codec ID : S_TEXT/UTF8
Codec ID/Info : UTF-8 Plain Text
Duration : 43 min 26 s
Bit rate : 92 b/s
Count of elements : 897
Stream size : 29.5 KiB (0%)
Language : English
Default : No
Forced : No

Text #2
ID : 4
Format : UTF-8
Codec ID : S_TEXT/UTF8
Codec ID/Info : UTF-8 Plain Text
Duration : 43 min 26 s
Bit rate : 95 b/s
Count of elements : 960
Stream size : 30.3 KiB (0%)
Title : SDH
Language : English
Default : No
Forced : No





God Friended Me S01E15


God Friended Me S01E15


God Friended Me S01E15


God Friended Me S01E15


God Friended Me S01E15

All episodes