Good Times, Bad Times S28E167

Posted By: Tavaz
Good Times, Bad Times S28E167

Good Times, Bad Times S28E167
MOV | 1920x1080 | H264 @ 4496 kbps | AAC @ 151 kbps | 22 min 24 s | 750 MiB

Goede tijden, slechte tijden, also known as GTST, is the longest-running Dutch soap opera, which began on 1 October 1990 on RTL4. The programme was the first daily soap in the Netherlands. The soap is produced by Joop van den Ende and to date over 4,000 episodes have been broadcast. It was inspired by the Australian soap The Restless Years, although it started following its own course during the third season. GTST is broadcast Monday to Friday at 20:00. Around 1.5 million viewers watch each episode. It is the highest rated soap opera in the Netherlands.

The soap mainly revolves around the lives of the families Alberts, Sanders, De Jong, Van Houten and Bouwhuis. It all takes place in the fictional town of Meerdijk. Like any other soap, marriage, divorce, kidnapping and business are a few of the ingredients of GTST, although in recent years, GTST has become known for writing and producing more controversial storylines. GTST is also known for having a summer break each year, ending a season sometime in June with a cliffhanger, only to resume three months later in September. Although the early cliffhangers often revolved around family drama, later cliffhangers have often revolved around disasters and unexpected twists.

Goede.Tijden.Slechte.Tijden-S28E167.24-04-2018.mp4 (750.5 MB)



General
Complete name : ./Goede.Tijden.Slechte.Tijden-S28E167.24-04-2018.mp4
Format : MPEG-4
Format profile : Base Media
Codec ID : isom (isom/iso2/avc1/mp41)
File size : 750 MiB
Duration : 22 min 24 s
Overall bit rate mode : Variable
Overall bit rate : 4 681 kb/s
Writing application : Lavf54.63.104

Video
ID : 1
Format : AVC
Format/Info : Advanced Video Codec
Format profile : Main@L4
Format settings : CABAC / 1 Ref Frames
Format settings, CABAC : Yes
Format settings, RefFrames : 1 frame
Format settings, GOP : N=1
Codec ID : avc1
Codec ID/Info : Advanced Video Coding
Duration : 22 min 24 s
Bit rate : 4 496 kb/s
Width : 1 920 pixels
Height : 1 080 pixels
Display aspect ratio : 16:9
Frame rate mode : Constant
Frame rate : 25.000 FPS
Color space : YUV
Chroma subsampling : 4:2:0
Bit depth : 8 bits
Scan type : Progressive
Bits/(Pixel*Frame) : 0.087
Stream size : 725 MiB (97%)
Writing library : x264 core 129
Encoding settings : cabac=1 / ref=1 / deblock=1:0:0 / analyse=0x1:0x131 / me=dia / subme=2 / psy=1 / psy_rd=1.00:0.00 / mixed_ref=0 / me_range=16 / chroma_me=1 / trellis=0 / 8x8dct=0 / cqm=0 / deadzone=21,11 / fast_pskip=1 / chroma_qp_offset=0 / threads=8 / lookahead_threads=1 / sliced_threads=0 / nr=0 / decimate=1 / interlaced=0 / bluray_compat=0 / constrained_intra=0 / bframes=0 / weightp=2 / keyint=250 / keyint_min=25 / scenecut=40 / intra_refresh=0 / rc_lookahead=40 / rc=abr / mbtree=1 / bitrate=4496 / ratetol=1.0 / qcomp=0.60 / qpmin=10 / qpmax=51 / qpstep=4 / ip_ratio=1.41 / aq=1:1.00

Audio
ID : 2
Format : AAC
Format/Info : Advanced Audio Codec
Format profile : LC
Codec ID : mp4a-40-2
Duration : 22 min 24 s
Duration_FirstFrame : 70 ms
Bit rate mode : Variable
Bit rate : 152 kb/s
Maximum bit rate : 176 kb/s
Channel(s) : 2 channels
Channel positions : Front: L R
Sampling rate : 44.1 kHz
Frame rate : 43.066 FPS (1024 SPF)
Compression mode : Lossy
Stream size : 24.4 MiB (3%)
Default : Yes
Alternate group : 1





Good Times, Bad Times S28E167


Good Times, Bad Times S28E167


Good Times, Bad Times S28E167


Good Times, Bad Times S28E167


Good Times, Bad Times S28E167

All episodes