Index
# A B C D E F G H I J K L M N O P Q R S T U V W Y Z
Tags
Language
Tags

Featured TV Shows


Goliath S01E08

Posted By: Tavaz
1080p (FullHD) / WEBRip IMDb
Goliath S01E08

Goliath S01E08
WEBRip | MKV | 1920x960 | English | H264 @ 11327 kbps | E-AC-3 @ 640 kbps | 59 min 24 s | 4.97 GiB
Subtitles: English
Genre: Crime, Drama


Once a powerful lawyer, Billy McBride is now burned out and washed up, spending more time in a bar than a courtroom. When he reluctantly agrees to pursue a wrongful death lawsuit against the biggest client of Cooperman & McBride, the massive law firm he helped create, Billy and his ragtag team uncover a vast and deadly conspiracy, pitting them all in a life or death trial against the ultimate Goliath.

aMnD.mkv (5.0 GB)



General
Unique ID : 128987759481212866405931992180109125494 (0x610A238B4EF843159FA78BD1134CA776)
Complete name : ./aMnD.mkv
Format : Matroska
Format version : Version 4 / Version 2
File size : 4.97 GiB
Duration : 59 min 24 s
Overall bit rate : 12.0 Mb/s
Encoded date : UTC 2018-05-13 19:30:44
Writing application : mkvmerge v23.0.0 ('The Bride Said No') 64-bit
Writing library : libebml v1.3.6 + libmatroska v1.4.9

Video
ID : 1
Format : AVC
Format/Info : Advanced Video Codec
Format profile : High@L4.1
Format settings : CABAC / 4 Ref Frames
Format settings, CABAC : Yes
Format settings, RefFrames : 4 frames
Codec ID : V_MPEG4/ISO/AVC
Duration : 59 min 24 s
Bit rate : 11.3 Mb/s
Width : 1 920 pixels
Height : 960 pixels
Display aspect ratio : 2.000
Frame rate mode : Constant
Frame rate : 23.976 (24000/1001) FPS
Color space : YUV
Chroma subsampling : 4:2:0
Bit depth : 8 bits
Scan type : Progressive
Bits/(Pixel*Frame) : 0.256
Stream size : 4.70 GiB (95%)
Writing library : x264 core 152 r2851kMod ba24899
Encoding settings : cabac=1 / ref=4 / deblock=1:-3:-3 / analyse=0x3:0x133 / me=umh / subme=10 / psy=1 / fade_compensate=0.00 / psy_rd=1.00:0.00 / mixed_ref=1 / me_range=48 / chroma_me=1 / trellis=2 / 8x8dct=1 / cqm=0 / deadzone=21,11 / fast_pskip=0 / chroma_qp_offset=-2 / threads=48 / lookahead_threads=7 / sliced_threads=0 / nr=0 / decimate=0 / interlaced=0 / bluray_compat=0 / constrained_intra=0 / bframes=8 / b_pyramid=2 / b_adapt=2 / b_bias=0 / direct=3 / weightb=1 / open_gop=0 / weightp=2 / keyint=250 / keyint_min=23 / scenecut=40 / intra_refresh=0 / rc=crf / mbtree=0 / crf=17.0000 / qcomp=0.60 / qpmin=0 / qpmax=69 / qpstep=4 / ip_ratio=1.30 / pb_ratio=1.20 / aq=3:0.70
Language : English
Default : Yes
Forced : No

Audio
ID : 2
Format : E-AC-3
Format/Info : Enhanced Audio Coding 3
Format settings, Endianness : Big
Codec ID : A_EAC3
Duration : 59 min 24 s
Bit rate mode : Constant
Bit rate : 640 kb/s
Channel(s) : 6 channels
Channel positions : Front: L C R, Side: L R, LFE
Sampling rate : 48.0 kHz
Frame rate : 187.500 FPS (256 SPF)
Compression mode : Lossy
Stream size : 272 MiB (5%)
Language : English
Service kind : Complete Main
Default : Yes
Forced : No

Text #1
ID : 3
Format : UTF-8
Codec ID : S_TEXT/UTF8
Codec ID/Info : UTF-8 Plain Text
Duration : 59 min 4 s
Bit rate : 53 b/s
Count of elements : 847
Stream size : 23.3 KiB (0%)
Language : English
Default : No
Forced : No

Text #2
ID : 4
Format : UTF-8
Codec ID : S_TEXT/UTF8
Codec ID/Info : UTF-8 Plain Text
Duration : 59 min 4 s
Bit rate : 55 b/s
Count of elements : 883
Stream size : 24.1 KiB (0%)
Title : SDH
Language : English
Default : No
Forced : No

Menu
00:00:00.000 : en:TV Rating
00:00:09.000 : en:Amazon Original
00:00:13.000 : en:Opening Credits
00:01:26.000 : en:Billy confronts Brittany
00:04:36.000 : en:Cooperman leaves his penthouse
00:07:40.000 : en:Cooperman takes the stand
00:13:53.000 : en:Billy visits the hospital
00:16:09.000 : en:The lawyers discuss what they should do
00:18:12.000 : en:Brittany takes the stand
00:24:20.000 : en:Michelle visits Cooperman
00:26:40.000 : en:Callie and Billy give their closing statements
00:34:04.000 : en:Lucy goes to see Cooperman
00:36:38.000 : en:Brittany tries to talk to Billy
00:37:53.000 : en:The jury makes their decision
00:40:49.000 : en:Wendell tells Billy what really happened
00:46:05.000 : en:Callie has one final thing to say to Michelle
00:48:05.000 : en:The case comes to an end
00:50:11.000 : en:Billy talks to Cooperman one last time
00:56:40.000 : en:Billy has a drink on the beach
00:57:52.000 : en:End Credits





Goliath S01E08


Goliath S01E08


Goliath S01E08


Goliath S01E08


Goliath S01E08

All episodes