Featured TV Shows


Goliath S02E01

Posted By: Tavaz
1080p (FullHD) / WEBRip IMDb
Goliath S02E01

Goliath S02E01
WEB-DL | MKV | 1920x960 | German / English | H264 @ 5602 kbps | AC-3 @ 640 kbps | 49 min 30 s | 2.38 GiB
Subtitles: German, English
Genre: Krimi, Drama

Der ehemals erfolgreiche und mächtige Anwalt Billy McBride (Billy Bob Thornton) wird nach einem schwierigen Fall, in dessen Umfeld ein Kind ermordet wurde, von seinem alten Partner Cooper (William Hurt) aus der Firma gedrängt. Er verfällt dem Alkohol und zerstört sein Ehe. Dank seines Charismas kommt McBride halbwegs über die Runden, und schließlich bietet ihm ein neuer Fall die Gelegenheit, sich vor Gericht an seinem früheren Kollegen Cooper zu rächen.

Goliath.S02E01.German.DL.DUBBED.1080p.WebHD.x264-AIDA.mkv (2.4 GB)
goliath.s02e01.german.dl.dubbed.1080p.webhd.x264-aida.sample.mkv (68.9 MB)



General
Unique ID : 201243570815901004824865189940106344423 (0x97661A17198F98B7BC571AE3A4A7B7E7)
Complete name : ./Goliath.S02E01.German.DL.DUBBED.1080p.WebHD.x264-AIDA.mkv
Format : Matroska
Format version : Version 4 / Version 2
File size : 2.38 GiB
Duration : 49 min 30 s
Overall bit rate mode : Variable
Overall bit rate : 6 885 kb/s
Encoded date : UTC 2018-06-27 09:15:17
Writing application : mkvmerge v8.3.0 ('Over the Horizon') 64bit
Writing library : libebml v1.3.1 + libmatroska v1.4.2

Video
ID : 1
Format : AVC
Format/Info : Advanced Video Codec
Format profile : High@L4
Format settings : CABAC / 4 Ref Frames
Format settings, CABAC : Yes
Format settings, RefFrames : 4 frames
Codec ID : V_MPEG4/ISO/AVC
Duration : 49 min 30 s
Bit rate mode : Variable
Bit rate : 5 603 kb/s
Maximum bit rate : 15.0 Mb/s
Width : 1 920 pixels
Height : 960 pixels
Original height : 1 080 pixels
Display aspect ratio : 16:9
Frame rate mode : Constant
Frame rate : 23.976 (24000/1001) FPS
Color space : YUV
Chroma subsampling : 4:2:0
Bit depth : 8 bits
Scan type : Progressive
Bits/(Pixel*Frame) : 0.127
Stream size : 1.94 GiB (81%)
Language : English
Default : Yes
Forced : No
Color range : Limited
Color primaries : BT.709
Transfer characteristics : BT.709
Matrix coefficients : BT.709

Audio #1
ID : 2
Format : AC-3
Format/Info : Audio Coding 3
Format settings, Endianness : Big
Codec ID : A_AC3
Duration : 49 min 30 s
Bit rate mode : Constant
Bit rate : 640 kb/s
Channel(s) : 6 channels
Channel positions : Front: L C R, Side: L R, LFE
Sampling rate : 48.0 kHz
Frame rate : 31.250 FPS (1536 SPF)
Bit depth : 16 bits
Compression mode : Lossy
Stream size : 227 MiB (9%)
Language : German
Service kind : Complete Main
Default : Yes
Forced : No

Audio #2
ID : 3
Format : E-AC-3
Format/Info : Enhanced Audio Coding 3
Format settings, Endianness : Big
Codec ID : A_EAC3
Duration : 49 min 30 s
Bit rate mode : Constant
Bit rate : 640 kb/s
Channel(s) : 6 channels
Channel positions : Front: L C R, Side: L R, LFE
Sampling rate : 48.0 kHz
Frame rate : 187.500 FPS (256 SPF)
Compression mode : Lossy
Stream size : 227 MiB (9%)
Language : English
Service kind : Complete Main
Default : No
Forced : No

Text #1
ID : 4
Format : UTF-8
Codec ID : S_TEXT/UTF8
Codec ID/Info : UTF-8 Plain Text
Duration : 49 min 7 s
Bit rate : 59 b/s
Count of elements : 644
Stream size : 21.5 KiB (0%)
Title : German
Language : German
Default : No
Forced : No

Text #2
ID : 5
Format : UTF-8
Codec ID : S_TEXT/UTF8
Codec ID/Info : UTF-8 Plain Text
Duration : 10 s 553 ms
Bit rate : 102 b/s
Count of elements : 4
Stream size : 135 Bytes (0%)
Title : English (Forced)
Language : English
Default : Yes
Forced : Yes

Text #3
ID : 6
Format : UTF-8
Codec ID : S_TEXT/UTF8
Codec ID/Info : UTF-8 Plain Text
Duration : 46 min 46 s
Bit rate : 78 b/s
Count of elements : 885
Stream size : 26.7 KiB (0%)
Title : English
Language : English
Default : No
Forced : No





Goliath S02E01


Goliath S02E01


Goliath S02E01


Goliath S02E01


Goliath S02E01

All episodes