Featured TV Shows


Goliath S02E03

Posted By: Tavaz
1080p (FullHD) / WEBRip IMDb
Goliath S02E03

Goliath S02E03
WEB-DL | MKV | 1920x960 | German / English | H264 @ 6488 kbps | AC-3 @ 640 kbps | 44 min 32 s | 2.42 GiB
Subtitles: German, English
Genre: Crime, Drama

Once a powerful lawyer, Billy McBride is now burned out and washed up, spending more time in a bar than a courtroom. When he reluctantly agrees to pursue a wrongful death lawsuit against the biggest client of Cooperman & McBride, the massive law firm he helped create, Billy and his ragtag team uncover a vast and deadly conspiracy, pitting them all in a life or death trial against the ultimate Goliath.

Goliath.S02E03.German.DL.DUBBED.1080p.WebHD.x264-AIDA.mkv (2.4 GB)
goliath.s02e03.german.dl.dubbed.1080p.webhd.x264-aida.sample.mkv (53.0 MB)



General
Unique ID : 216551782795038785769687704246124938897 (0xA2EA5B36725A61DEBF5676C79ED20691)
Complete name : ./Goliath.S02E03.German.DL.DUBBED.1080p.WebHD.x264-AIDA.mkv
Format : Matroska
Format version : Version 4 / Version 2
File size : 2.42 GiB
Duration : 44 min 32 s
Overall bit rate mode : Variable
Overall bit rate : 7 771 kb/s
Encoded date : UTC 2018-06-27 09:16:19
Writing application : mkvmerge v8.3.0 ('Over the Horizon') 64bit
Writing library : libebml v1.3.1 + libmatroska v1.4.2

Video
ID : 1
Format : AVC
Format/Info : Advanced Video Codec
Format profile : High@L4
Format settings : CABAC / 4 Ref Frames
Format settings, CABAC : Yes
Format settings, RefFrames : 4 frames
Codec ID : V_MPEG4/ISO/AVC
Duration : 44 min 32 s
Bit rate mode : Variable
Bit rate : 6 489 kb/s
Maximum bit rate : 15.0 Mb/s
Width : 1 920 pixels
Height : 960 pixels
Original height : 1 080 pixels
Display aspect ratio : 16:9
Frame rate mode : Constant
Frame rate : 23.976 (24000/1001) FPS
Color space : YUV
Chroma subsampling : 4:2:0
Bit depth : 8 bits
Scan type : Progressive
Bits/(Pixel*Frame) : 0.147
Stream size : 2.02 GiB (83%)
Language : English
Default : Yes
Forced : No
Color range : Limited
Color primaries : BT.709
Transfer characteristics : BT.709
Matrix coefficients : BT.709

Audio #1
ID : 2
Format : AC-3
Format/Info : Audio Coding 3
Format settings, Endianness : Big
Codec ID : A_AC3
Duration : 44 min 32 s
Bit rate mode : Constant
Bit rate : 640 kb/s
Channel(s) : 6 channels
Channel positions : Front: L C R, Side: L R, LFE
Sampling rate : 48.0 kHz
Frame rate : 31.250 FPS (1536 SPF)
Bit depth : 16 bits
Compression mode : Lossy
Stream size : 204 MiB (8%)
Language : German
Service kind : Complete Main
Default : Yes
Forced : No

Audio #2
ID : 3
Format : E-AC-3
Format/Info : Enhanced Audio Coding 3
Format settings, Endianness : Big
Codec ID : A_EAC3
Duration : 44 min 32 s
Bit rate mode : Constant
Bit rate : 640 kb/s
Channel(s) : 6 channels
Channel positions : Front: L C R, Side: L R, LFE
Sampling rate : 48.0 kHz
Frame rate : 187.500 FPS (256 SPF)
Compression mode : Lossy
Stream size : 204 MiB (8%)
Language : English
Service kind : Complete Main
Default : No
Forced : No

Text #1
ID : 4
Format : UTF-8
Codec ID : S_TEXT/UTF8
Codec ID/Info : UTF-8 Plain Text
Duration : 40 min 38 s
Bit rate : 179 b/s
Count of elements : 581
Stream size : 53.3 KiB (0%)
Title : German
Language : German
Default : No
Forced : No

Text #2
ID : 5
Format : UTF-8
Codec ID : S_TEXT/UTF8
Codec ID/Info : UTF-8 Plain Text
Duration : 40 min 39 s
Bit rate : 73 b/s
Count of elements : 715
Stream size : 21.9 KiB (0%)
Title : English (Forced)
Language : English
Default : Yes
Forced : Yes

Text #3
ID : 6
Format : UTF-8
Codec ID : S_TEXT/UTF8
Codec ID/Info : UTF-8 Plain Text
Duration : 41 min 50 s
Bit rate : 84 b/s
Count of elements : 830
Stream size : 26.0 KiB (0%)
Title : English
Language : English
Default : No
Forced : No





Goliath S02E03


Goliath S02E03


Goliath S02E03


Goliath S02E03


Goliath S02E03

All episodes