Featured TV Shows


Goliath S02E05

Posted By: Tavaz
SD / WEBRip IMDb
Goliath S02E05

Goliath S02E05
WEBRip | MKV | 1024x512 | English | H264 @ 1805 kbps | AC-3 @ 448 kbps | 51 min 43 s | 835 MiB
Subtitles: Portuguese, Indonesian, Spanish, Chinese, Turkish, German, English, French, Hindi, Dutch, Russian, Polish, Arabic, Korean, Italian
Genre: Crime, Drama

Once a powerful lawyer, Billy McBride is now burned out and washed up, spending more time in a bar than a courtroom. When he reluctantly agrees to pursue a wrongful death lawsuit against the biggest client of Cooperman & McBride, the massive law firm he helped create, Billy and his ragtag team uncover a vast and deadly conspiracy, pitting them all in a life or death trial against the ultimate Goliath.

Goliath S02E05 576p WEBRip x264-RTFM.mkv (835.3 MB)



General
Unique ID : 96674488715319343677615326758765361955 (0x48BAD44AE03C9DBEC75F74B9D7D47B23)
Complete name : ./Goliath S02E05 576p WEBRip x264-RTFM.mkv
Format : Matroska
Format version : Version 4 / Version 2
File size : 835 MiB
Duration : 51 min 43 s
Overall bit rate : 2 258 kb/s
Encoded date : UTC 2018-06-17 09:58:15
Writing application : mkvmerge v20.0.0 ('I Am The Sun') 64-bit
Writing library : libebml v1.3.5 + libmatroska v1.4.8

Video
ID : 1
Format : AVC
Format/Info : Advanced Video Codec
Format profile : High@L4.1
Format settings : CABAC / 16 Ref Frames
Format settings, CABAC : Yes
Format settings, RefFrames : 16 frames
Codec ID : V_MPEG4/ISO/AVC
Duration : 51 min 43 s
Bit rate : 1 806 kb/s
Width : 1 024 pixels
Height : 512 pixels
Display aspect ratio : 2.000
Frame rate mode : Constant
Frame rate : 23.976 (24000/1001) FPS
Color space : YUV
Chroma subsampling : 4:2:0
Bit depth : 8 bits
Scan type : Progressive
Bits/(Pixel*Frame) : 0.144
Stream size : 668 MiB (80%)
Writing library : x264 core 155 r2901 7d0ff22
Encoding settings : cabac=1 / ref=16 / deblock=1:-3:-3 / analyse=0x3:0x133 / me=umh / subme=10 / psy=1 / psy_rd=1.00:0.15 / mixed_ref=1 / me_range=48 / chroma_me=1 / trellis=2 / 8x8dct=1 / cqm=0 / deadzone=21,11 / fast_pskip=0 / chroma_qp_offset=-3 / threads=16 / lookahead_threads=2 / sliced_threads=0 / nr=0 / decimate=0 / interlaced=0 / bluray_compat=0 / constrained_intra=0 / bframes=8 / b_pyramid=2 / b_adapt=2 / b_bias=0 / direct=3 / weightb=1 / open_gop=0 / weightp=2 / keyint=250 / keyint_min=23 / scenecut=40 / intra_refresh=0 / rc=crf / mbtree=0 / crf=18.0 / qcomp=0.60 / qpmin=0 / qpmax=69 / qpstep=4 / ip_ratio=1.40 / pb_ratio=1.30 / aq=3:0.80
Language : English
Default : Yes
Forced : No

Audio
ID : 2
Format : AC-3
Format/Info : Audio Coding 3
Format settings, Endianness : Big
Codec ID : A_AC3
Duration : 51 min 43 s
Bit rate mode : Constant
Bit rate : 448 kb/s
Channel(s) : 6 channels
Channel positions : Front: L C R, Side: L R, LFE
Sampling rate : 48.0 kHz
Frame rate : 31.250 FPS (1536 SPF)
Bit depth : 16 bits
Compression mode : Lossy
Stream size : 166 MiB (20%)
Language : English
Service kind : Complete Main
Default : Yes
Forced : No

Text #1
ID : 3
Format : UTF-8
Codec ID : S_TEXT/UTF8
Codec ID/Info : UTF-8 Plain Text
Duration : 1 min 43 s
Bit rate : 93 b/s
Count of elements : 33
Stream size : 1.18 KiB (0%)
Title : English (Forced)
Language : English
Default : Yes
Forced : Yes

Text #2
ID : 4
Format : UTF-8
Codec ID : S_TEXT/UTF8
Codec ID/Info : UTF-8 Plain Text
Duration : 48 min 25 s
Bit rate : 66 b/s
Count of elements : 804
Stream size : 23.6 KiB (0%)
Title : English
Language : English
Default : No
Forced : No

Text #3
ID : 5
Format : UTF-8
Codec ID : S_TEXT/UTF8
Codec ID/Info : UTF-8 Plain Text
Duration : 48 min 46 s
Bit rate : 72 b/s
Count of elements : 878
Stream size : 26.1 KiB (0%)
Title : English (SDH)
Language : English
Default : No
Forced : No

Text #4
ID : 6
Format : UTF-8
Codec ID : S_TEXT/UTF8
Codec ID/Info : UTF-8 Plain Text
Duration : 48 min 24 s
Bit rate : 85 b/s
Count of elements : 666
Stream size : 30.2 KiB (0%)
Title : Arabic
Language : Arabic
Default : No
Forced : No

Text #5
ID : 7
Format : UTF-8
Codec ID : S_TEXT/UTF8
Codec ID/Info : UTF-8 Plain Text
Duration : 48 min 24 s
Bit rate : 58 b/s
Count of elements : 667
Stream size : 20.8 KiB (0%)
Title : Chinese (Simplified Mandarin)
Language : Chinese
Default : No
Forced : No

Text #6
ID : 8
Format : UTF-8
Codec ID : S_TEXT/UTF8
Codec ID/Info : UTF-8 Plain Text
Duration : 48 min 24 s
Bit rate : 54 b/s
Count of elements : 667
Stream size : 19.2 KiB (0%)
Title : Chinese (Traditional Mandarin)
Language : Chinese
Default : No
Forced : No

Text #7
ID : 9
Format : UTF-8
Codec ID : S_TEXT/UTF8
Codec ID/Info : UTF-8 Plain Text
Duration : 48 min 24 s
Bit rate : 54 b/s
Count of elements : 616
Stream size : 19.2 KiB (0%)
Title : Dutch
Language : Dutch
Default : No
Forced : No

Text #8
ID : 10
Format : UTF-8
Codec ID : S_TEXT/UTF8
Codec ID/Info : UTF-8 Plain Text
Duration : 47 min 47 s
Bit rate : 67 b/s
Count of elements : 663
Stream size : 23.8 KiB (0%)
Title : French
Language : French
Default : No
Forced : No

Text #9
ID : 11
Format : UTF-8
Codec ID : S_TEXT/UTF8
Codec ID/Info : UTF-8 Plain Text
Duration : 48 min 24 s
Bit rate : 61 b/s
Count of elements : 617
Stream size : 21.8 KiB (0%)
Title : German
Language : German
Default : No
Forced : No

Text #10
ID : 12
Format : UTF-8
Codec ID : S_TEXT/UTF8
Codec ID/Info : UTF-8 Plain Text
Duration : 48 min 24 s
Bit rate : 159 b/s
Count of elements : 668
Stream size : 56.5 KiB (0%)
Title : Hindi
Language : Hindi
Default : No
Forced : No

Text #11
ID : 13
Format : UTF-8
Codec ID : S_TEXT/UTF8
Codec ID/Info : UTF-8 Plain Text
Duration : 48 min 24 s
Bit rate : 59 b/s
Count of elements : 666
Stream size : 21.2 KiB (0%)
Title : Indonesian
Language : Indonesian
Default : No
Forced : No

Text #12
ID : 14
Format : UTF-8
Codec ID : S_TEXT/UTF8
Codec ID/Info : UTF-8 Plain Text
Duration : 48 min 24 s
Bit rate : 65 b/s
Count of elements : 666
Stream size : 23.1 KiB (0%)
Title : Italian
Language : Italian
Default : No
Forced : No

Text #13
ID : 15
Format : UTF-8
Codec ID : S_TEXT/UTF8
Codec ID/Info : UTF-8 Plain Text
Duration : 48 min 24 s
Bit rate : 61 b/s
Count of elements : 667
Stream size : 22.0 KiB (0%)
Title : Korean
Language : Korean
Default : No
Forced : No

Text #14
ID : 16
Format : UTF-8
Codec ID : S_TEXT/UTF8
Codec ID/Info : UTF-8 Plain Text
Duration : 47 min 47 s
Bit rate : 58 b/s
Count of elements : 647
Stream size : 20.4 KiB (0%)
Title : Polish
Language : Polish
Default : No
Forced : No

Text #15
ID : 17
Format : UTF-8
Codec ID : S_TEXT/UTF8
Codec ID/Info : UTF-8 Plain Text
Duration : 48 min 24 s
Bit rate : 59 b/s
Count of elements : 664
Stream size : 21.0 KiB (0%)
Title : Portuguese (Brazilian)
Language : Portuguese
Default : No
Forced : No

Text #16
ID : 18
Format : UTF-8
Codec ID : S_TEXT/UTF8
Codec ID/Info : UTF-8 Plain Text
Duration : 48 min 24 s
Bit rate : 110 b/s
Count of elements : 667
Stream size : 39.3 KiB (0%)
Title : Russian
Language : Russian
Default : No
Forced : No

Text #17
ID : 19
Format : UTF-8
Codec ID : S_TEXT/UTF8
Codec ID/Info : UTF-8 Plain Text
Duration : 46 min 52 s
Bit rate : 57 b/s
Count of elements : 634
Stream size : 19.9 KiB (0%)
Title : Spanish (European)
Language : Spanish
Default : No
Forced : No

Text #18
ID : 20
Format : UTF-8
Codec ID : S_TEXT/UTF8
Codec ID/Info : UTF-8 Plain Text
Duration : 46 min 52 s
Bit rate : 60 b/s
Count of elements : 634
Stream size : 20.7 KiB (0%)
Title : Spanish (Latin American)
Language : Spanish
Default : No
Forced : No

Text #19
ID : 21
Format : UTF-8
Codec ID : S_TEXT/UTF8
Codec ID/Info : UTF-8 Plain Text
Duration : 48 min 24 s
Bit rate : 63 b/s
Count of elements : 666
Stream size : 22.6 KiB (0%)
Title : Turkish
Language : Turkish
Default : No
Forced : No

Menu
00:00:00.000 : en:Amazon Original
00:00:05.000 : en:Gabriel tells a story
00:01:55.000 : en:Title Sequence
00:01:58.000 : en:Hakeem and Billy wait for someone
00:04:03.000 : en:Miguel tries to see Marisol in her campaign office
00:07:14.000 : en:Roman asks Billy for help
00:11:02.000 : en:Tom is still worried about his past
00:13:07.000 : en:Roman decides to tell the truth
00:16:09.000 : en:Tom tells his story to Brittany
00:20:59.000 : en:Brittany tells Tom that she is happy to help him
00:23:16.000 : en:Marisol apologizes to Billy
00:24:14.000 : en:Danny comes to meet Keith
00:25:39.000 : en:Jeff and Patty have their first date
00:30:07.000 : en:Good news for Julio
00:32:22.000 : en:Tom tells Danny the news about Julio's case
00:34:53.000 : en:Marisol answers questions at the debate
00:37:04.000 : en:Gabriel asks Elena to convey a message to Marisol
00:40:15.000 : en:Denise tells Billy about an incident that happened at work
00:41:23.000 : en:Marisol visits Julio in prison
00:42:57.000 : en:Tom asks Danny to take care of Keith
00:45:32.000 : en:Marisol asks Billy to come with her
00:49:12.000 : en:End Credits





Goliath S02E05


Goliath S02E05


Goliath S02E05


Goliath S02E05


Goliath S02E05

All episodes