Featured TV Shows


Goliath S03E01

Posted By: Tavaz
720p (HD) / WEB-DL IMDb
Goliath S03E01

Goliath S03E01
WEB-DL | MKV | 960x540 | English | H264 @ 711 kbps | E-AC-3 @ 192 kbps | 54 min 23 s | 353 MiB
Subtitles: Swedish, Norwegian Bokmal, Turkish, Hindi, Dutch, Korean, Danish, Indonesian, Telugu, French, Russian, Thai, Tamil, Finnish, Spanish, English, Italian, Portuguese, Chinese, German, Japanese, Hebrew, Polish, Arabic
Genre: Crime, Drama


Once a powerful lawyer, Billy McBride is now burned out and washed up, spending more time in a bar than a courtroom. When he reluctantly agrees to pursue a wrongful death lawsuit against the biggest client of Cooperman & McBride, the massive law firm he helped create, Billy and his ragtag team uncover a vast and deadly conspiracy, pitting them all in a life or death trial against the ultimate Goliath.

Goliath.S03E01.The.Subsidence.Adventure.AMZN.WEB-DL.DDP5.1.H.264-BTW.mkv (293.6 MB)
Goliath.S03E07.Conscious.Uncoupling.AMZN.WEB-DL.DDP5.1.H.264-BTW.mkv (284.2 MB)
Goliath.S03E08.Joy.Division.AMZN.WEB-DL.DDP5.1.H.264-BTW.mkv (280.9 MB)
Goliath.S03E05.Argus.2.Battledome.AMZN.WEB-DL.DDP5.1.H.264-BTW.mkv (325.1 MB)
Goliath.S03E04.Full.Circle.AMZN.WEB-DL.DDP5.1.H.264-BTW.mkv (257.5 MB)
Goliath.S03E03.Good.Morning.Central.Valley.AMZN.WEB-DL.DDP5.1.H.264-BTW.mkv (343.6 MB)
Goliath.S03E06.Fer-De-Lance.AMZN.WEB-DL.DDP5.1.H.264-BTW.mkv (233.9 MB)
Goliath.S03E02.Happiness.From.The.Ground.Up.AMZN.WEB-DL.DDP5.1.H.264-BTW.mkv (353.4 MB)



General
Unique ID : 71967373556410265889685909109642427620 (0x36246977339002704F658DC83454FCE4)
Complete name : ./Goliath.S03E02.Happiness.From.The.Ground.Up.AMZN.WEB-DL.DDP5.1.H.264-BTW.mkv
Format : Matroska
Format version : Version 4 / Version 2
File size : 353 MiB
Duration : 54 min 23 s
Overall bit rate : 909 kb/s
Encoded date : UTC 2019-10-04 00:21:47
Writing application : mkvmerge v21.0.0 ('Tardigrades Will Inherit The Earth') 64-bit
Writing library : libebml v1.3.5 + libmatroska v1.4.8

Video
ID : 1
Format : AVC
Format/Info : Advanced Video Codec
Format profile : High@L3.1
Format settings : CABAC / 5 Ref Frames
Format settings, CABAC : Yes
Format settings, RefFrames : 5 frames
Codec ID : V_MPEG4/ISO/AVC
Duration : 54 min 23 s
Bit rate : 711 kb/s
Width : 960 pixels
Height : 540 pixels
Display aspect ratio : 16:9
Frame rate mode : Constant
Frame rate : 23.976 (24000/1001) FPS
Color space : YUV
Chroma subsampling : 4:2:0
Bit depth : 8 bits
Scan type : Progressive
Bits/(Pixel*Frame) : 0.057
Stream size : 277 MiB (78%)
Default : Yes
Forced : No
Color range : Limited
Color primaries : BT.709
Transfer characteristics : BT.709
Matrix coefficients : BT.709

Audio
ID : 2
Format : E-AC-3
Format/Info : Enhanced Audio Coding 3
Format settings, Endianness : Big
Codec ID : A_EAC3
Duration : 54 min 23 s
Bit rate mode : Constant
Bit rate : 192 kb/s
Channel(s) : 6 channels
Channel positions : Front: L C R, Side: L R, LFE
Sampling rate : 48.0 kHz
Frame rate : 187.500 FPS (256 SPF)
Compression mode : Lossy
Stream size : 74.7 MiB (21%)
Language : English
Service kind : Complete Main
Default : Yes
Forced : No

Text #1
ID : 3
Format : UTF-8
Codec ID : S_TEXT/UTF8
Codec ID/Info : UTF-8 Plain Text
Duration : 51 min 31 s
Bit rate : 69 b/s
Count of elements : 905
Stream size : 26.1 KiB (0%)
Language : English
Default : No
Forced : No

Text #2
ID : 4
Format : UTF-8
Codec ID : S_TEXT/UTF8
Codec ID/Info : UTF-8 Plain Text
Duration : 51 min 42 s
Bit rate : 69 b/s
Count of elements : 922
Stream size : 26.2 KiB (0%)
Title : SDH
Language : English
Default : No
Forced : No

Text #3
ID : 5
Format : UTF-8
Codec ID : S_TEXT/UTF8
Codec ID/Info : UTF-8 Plain Text
Duration : 51 min 25 s
Bit rate : 97 b/s
Count of elements : 687
Stream size : 36.6 KiB (0%)
Language : Arabic
Default : No
Forced : No

Text #4
ID : 6
Format : UTF-8
Codec ID : S_TEXT/UTF8
Codec ID/Info : UTF-8 Plain Text
Duration : 51 min 25 s
Bit rate : 51 b/s
Count of elements : 680
Stream size : 19.4 KiB (0%)
Language : Danish
Default : No
Forced : No

Text #5
ID : 7
Format : UTF-8
Codec ID : S_TEXT/UTF8
Codec ID/Info : UTF-8 Plain Text
Duration : 51 min 26 s
Bit rate : 52 b/s
Count of elements : 546
Stream size : 19.9 KiB (0%)
Language : German
Default : No
Forced : No

Text #6
ID : 8
Format : UTF-8
Codec ID : S_TEXT/UTF8
Codec ID/Info : UTF-8 Plain Text
Duration : 51 min 25 s
Bit rate : 56 b/s
Count of elements : 686
Stream size : 21.3 KiB (0%)
Title : Latinoamérica
Language : Spanish
Default : No
Forced : No

Text #7
ID : 9
Format : UTF-8
Codec ID : S_TEXT/UTF8
Codec ID/Info : UTF-8 Plain Text
Duration : 51 min 25 s
Bit rate : 54 b/s
Count of elements : 687
Stream size : 20.7 KiB (0%)
Title : España
Language : Spanish
Default : No
Forced : No

Text #8
ID : 10
Format : UTF-8
Codec ID : S_TEXT/UTF8
Codec ID/Info : UTF-8 Plain Text
Duration : 51 min 25 s
Bit rate : 51 b/s
Count of elements : 687
Stream size : 19.5 KiB (0%)
Language : Finnish
Default : No
Forced : No

Text #9
ID : 11
Format : UTF-8
Codec ID : S_TEXT/UTF8
Codec ID/Info : UTF-8 Plain Text
Duration : 51 min 25 s
Bit rate : 53 b/s
Count of elements : 679
Stream size : 20.2 KiB (0%)
Language : French
Default : No
Forced : No

Text #10
ID : 12
Format : UTF-8
Codec ID : S_TEXT/UTF8
Codec ID/Info : UTF-8 Plain Text
Duration : 51 min 25 s
Bit rate : 84 b/s
Count of elements : 687
Stream size : 31.7 KiB (0%)
Language : Hebrew
Default : No
Forced : No

Text #11
ID : 13
Format : UTF-8
Codec ID : S_TEXT/UTF8
Codec ID/Info : UTF-8 Plain Text
Duration : 51 min 25 s
Bit rate : 147 b/s
Count of elements : 687
Stream size : 55.6 KiB (0%)
Language : Hindi
Default : No
Forced : No

Text #12
ID : 14
Format : UTF-8
Codec ID : S_TEXT/UTF8
Codec ID/Info : UTF-8 Plain Text
Duration : 51 min 25 s
Bit rate : 46 b/s
Count of elements : 687
Stream size : 17.7 KiB (0%)
Language : Indonesian
Default : No
Forced : No

Text #13
ID : 15
Format : UTF-8
Codec ID : S_TEXT/UTF8
Codec ID/Info : UTF-8 Plain Text
Duration : 51 min 25 s
Bit rate : 60 b/s
Count of elements : 687
Stream size : 22.6 KiB (0%)
Language : Italian
Default : No
Forced : No

Text #14
ID : 16
Format : UTF-8
Codec ID : S_TEXT/UTF8
Codec ID/Info : UTF-8 Plain Text
Duration : 51 min 26 s
Bit rate : 44 b/s
Count of elements : 634
Stream size : 16.9 KiB (0%)
Language : Japanese
Default : No
Forced : No

Text #15
ID : 17
Format : UTF-8
Codec ID : S_TEXT/UTF8
Codec ID/Info : UTF-8 Plain Text
Duration : 51 min 25 s
Bit rate : 57 b/s
Count of elements : 687
Stream size : 21.8 KiB (0%)
Language : Korean
Default : No
Forced : No

Text #16
ID : 18
Format : UTF-8
Codec ID : S_TEXT/UTF8
Codec ID/Info : UTF-8 Plain Text
Duration : 51 min 25 s
Bit rate : 53 b/s
Count of elements : 687
Stream size : 20.1 KiB (0%)
Language : Norwegian Bokmal
Default : No
Forced : No

Text #17
ID : 19
Format : UTF-8
Codec ID : S_TEXT/UTF8
Codec ID/Info : UTF-8 Plain Text
Duration : 51 min 25 s
Bit rate : 51 b/s
Count of elements : 674
Stream size : 19.3 KiB (0%)
Language : Dutch
Default : No
Forced : No

Text #18
ID : 20
Format : UTF-8
Codec ID : S_TEXT/UTF8
Codec ID/Info : UTF-8 Plain Text
Duration : 51 min 25 s
Bit rate : 43 b/s
Count of elements : 683
Stream size : 16.5 KiB (0%)
Language : Polish
Default : No
Forced : No

Text #19
ID : 21
Format : UTF-8
Codec ID : S_TEXT/UTF8
Codec ID/Info : UTF-8 Plain Text
Duration : 51 min 25 s
Bit rate : 54 b/s
Count of elements : 687
Stream size : 20.4 KiB (0%)
Language : Portuguese
Default : No
Forced : No

Text #20
ID : 22
Format : UTF-8
Codec ID : S_TEXT/UTF8
Codec ID/Info : UTF-8 Plain Text
Duration : 51 min 25 s
Bit rate : 97 b/s
Count of elements : 682
Stream size : 36.6 KiB (0%)
Language : Russian
Default : No
Forced : No

Text #21
ID : 23
Format : UTF-8
Codec ID : S_TEXT/UTF8
Codec ID/Info : UTF-8 Plain Text
Duration : 51 min 25 s
Bit rate : 56 b/s
Count of elements : 687
Stream size : 21.1 KiB (0%)
Language : Swedish
Default : No
Forced : No

Text #22
ID : 24
Format : UTF-8
Codec ID : S_TEXT/UTF8
Codec ID/Info : UTF-8 Plain Text
Duration : 51 min 25 s
Bit rate : 160 b/s
Count of elements : 687
Stream size : 60.4 KiB (0%)
Language : Tamil
Default : No
Forced : No

Text #23
ID : 25
Format : UTF-8
Codec ID : S_TEXT/UTF8
Codec ID/Info : UTF-8 Plain Text
Duration : 51 min 25 s
Bit rate : 154 b/s
Count of elements : 687
Stream size : 58.3 KiB (0%)
Language : Telugu
Default : No
Forced : No

Text #24
ID : 26
Format : UTF-8
Codec ID : S_TEXT/UTF8
Codec ID/Info : UTF-8 Plain Text
Duration : 51 min 25 s
Bit rate : 127 b/s
Count of elements : 687
Stream size : 48.1 KiB (0%)
Language : Thai
Default : No
Forced : No

Text #25
ID : 27
Format : UTF-8
Codec ID : S_TEXT/UTF8
Codec ID/Info : UTF-8 Plain Text
Duration : 51 min 25 s
Bit rate : 49 b/s
Count of elements : 687
Stream size : 18.7 KiB (0%)
Language : Turkish
Default : No
Forced : No

Text #26
ID : 28
Format : UTF-8
Codec ID : S_TEXT/UTF8
Codec ID/Info : UTF-8 Plain Text
Duration : 51 min 25 s
Bit rate : 52 b/s
Count of elements : 687
Stream size : 19.9 KiB (0%)
Title : 中文(简体)
Language : Chinese
Default : No
Forced : No

Text #27
ID : 29
Format : UTF-8
Codec ID : S_TEXT/UTF8
Codec ID/Info : UTF-8 Plain Text
Duration : 51 min 25 s
Bit rate : 48 b/s
Count of elements : 685
Stream size : 18.3 KiB (0%)
Title : 中文(繁體)
Language : Chinese
Default : No
Forced : No

Menu
00:00:00.000 : en:Amazon Original
00:00:05.000 : en:Blackwood Almonds commercial
00:00:57.000 : en:Title Sequence
00:01:05.000 : en:An overview of Blackwood Almonds
00:04:44.000 : en:The use of water
00:09:07.000 : en:Helping Denise get settled
00:11:11.000 : en:Patty makes an unexpected friend
00:15:02.000 : en:Wheeler goes to Wade with his concerns
00:17:31.000 : en:Patty gets her car back
00:19:22.000 : en:A little bath time fun
00:21:33.000 : en:Billy crashes an unexpected party
00:29:58.000 : en:A long drive home
00:33:21.000 : en:A chance encounter
00:34:50.000 : en:Billy wants to talk about water
00:37:57.000 : en:A meeting in secret
00:43:16.000 : en:Coming to Gene with a plan
00:46:22.000 : en:Billy confronts Wade over what he's found
00:51:54.000 : en:End Credits





Goliath S03E01


Goliath S03E01


Goliath S03E01


Goliath S03E01


Goliath S03E01

All episodes