Featured TV Shows


Goliath S03E02

Posted By: Tavaz
1080p (FullHD) / WEBRip IMDb
Goliath S03E02

Goliath S03E02
WEBRip | MKV | 1920x1080 | English | H264 @ 5886 kbps | E-AC-3 @ 640 kbps | 54 min 23 s | 2.48 GiB
Subtitles: German, English
Genre: Crime, Drama


Once a powerful lawyer, Billy McBride is now burned out and washed up, spending more time in a bar than a courtroom. When he reluctantly agrees to pursue a wrongful death lawsuit against the biggest client of Cooperman & McBride, the massive law firm he helped create, Billy and his ragtag team uncover a vast and deadly conspiracy, pitting them all in a life or death trial against the ultimate Goliath.

885a56e325934011bdc1a69ff917e4b4.mkv (2.5 GB)



General
Unique ID : 171841977970777527109374138769506025702 (0x81478FA4C07FA47BB5B4EC9B0F0FC0E6)
Complete name : ./885a56e325934011bdc1a69ff917e4b4.mkv
Format : Matroska
Format version : Version 4 / Version 2
File size : 2.48 GiB
Duration : 54 min 23 s
Overall bit rate : 6 529 kb/s
Encoded date : UTC 2019-10-03 22:11:51
Writing application : mkvmerge v33.1.0 ('Primrose') 64-bit
Writing library : libebml v1.3.7 + libmatroska v1.5.0

Video
ID : 1
Format : AVC
Format/Info : Advanced Video Codec
Format profile : High@L4
Format settings : CABAC / 4 Ref Frames
Format settings, CABAC : Yes
Format settings, RefFrames : 4 frames
Codec ID : V_MPEG4/ISO/AVC
Duration : 54 min 23 s
Bit rate mode : Constant
Bit rate : 5 887 kb/s
Nominal bit rate : 10 000 kb/s
Width : 1 920 pixels
Height : 1 080 pixels
Display aspect ratio : 16:9
Frame rate mode : Constant
Frame rate : 23.976 (24000/1001) FPS
Color space : YUV
Chroma subsampling : 4:2:0
Bit depth : 8 bits
Scan type : Progressive
Bits/(Pixel*Frame) : 0.118
Stream size : 2.24 GiB (90%)
Language : English
Default : Yes
Forced : No
Color range : Limited
Color primaries : BT.709
Transfer characteristics : BT.709
Matrix coefficients : BT.709

Audio
ID : 2
Format : E-AC-3
Format/Info : Enhanced Audio Coding 3
Format settings, Endianness : Big
Codec ID : A_EAC3
Duration : 54 min 23 s
Bit rate mode : Constant
Bit rate : 640 kb/s
Channel(s) : 6 channels
Channel positions : Front: L C R, Side: L R, LFE
Sampling rate : 48.0 kHz
Frame rate : 187.500 FPS (256 SPF)
Compression mode : Lossy
Stream size : 249 MiB (10%)
Language : English
Service kind : Complete Main
Default : Yes
Forced : No

Text #1
ID : 3
Format : UTF-8
Codec ID : S_TEXT/UTF8
Codec ID/Info : UTF-8 Plain Text
Duration : 51 min 26 s
Bit rate : 52 b/s
Count of elements : 546
Stream size : 19.9 KiB (0%)
Title : Deutsch
Language : German
Default : No
Forced : No

Text #2
ID : 4
Format : UTF-8
Codec ID : S_TEXT/UTF8
Codec ID/Info : UTF-8 Plain Text
Duration : 51 min 42 s
Bit rate : 69 b/s
Count of elements : 922
Stream size : 26.2 KiB (0%)
Title : English
Language : English
Default : No
Forced : No





Goliath S03E02


Goliath S03E02


Goliath S03E02


Goliath S03E02


Goliath S03E02

All episodes