Featured TV Shows


Goliath S03E03

Posted By: Tavaz
1080p (FullHD) / WEBRip IMDb
Goliath S03E03

Goliath S03E03
WEBRip | MKV | 1920x1080 | English | H264 @ 5617 kbps | E-AC-3 @ 640 kbps | 57 min 54 s | 2.53 GiB
Subtitles: German, English
Genre: Crime, Drama


Once a powerful lawyer, Billy McBride is now burned out and washed up, spending more time in a bar than a courtroom. When he reluctantly agrees to pursue a wrongful death lawsuit against the biggest client of Cooperman & McBride, the massive law firm he helped create, Billy and his ragtag team uncover a vast and deadly conspiracy, pitting them all in a life or death trial against the ultimate Goliath.

655c9fcf3fa145e78d7cae1fc14f80b9.mkv (2.5 GB)



General
Unique ID : 321745815576582702576927019894776761887 (0xF20DFD753AA3272FDD8F45B1A9A38E1F)
Complete name : ./655c9fcf3fa145e78d7cae1fc14f80b9.mkv
Format : Matroska
Format version : Version 4 / Version 2
File size : 2.53 GiB
Duration : 57 min 54 s
Overall bit rate : 6 260 kb/s
Encoded date : UTC 2019-10-03 22:12:39
Writing application : mkvmerge v33.1.0 ('Primrose') 64-bit
Writing library : libebml v1.3.7 + libmatroska v1.5.0

Video
ID : 1
Format : AVC
Format/Info : Advanced Video Codec
Format profile : High@L4
Format settings : CABAC / 4 Ref Frames
Format settings, CABAC : Yes
Format settings, RefFrames : 4 frames
Codec ID : V_MPEG4/ISO/AVC
Duration : 57 min 54 s
Bit rate mode : Constant
Bit rate : 5 618 kb/s
Nominal bit rate : 10 000 kb/s
Width : 1 920 pixels
Height : 1 080 pixels
Display aspect ratio : 16:9
Frame rate mode : Constant
Frame rate : 23.976 (24000/1001) FPS
Color space : YUV
Chroma subsampling : 4:2:0
Bit depth : 8 bits
Scan type : Progressive
Bits/(Pixel*Frame) : 0.113
Stream size : 2.27 GiB (90%)
Language : English
Default : Yes
Forced : No
Color range : Limited
Color primaries : BT.709
Transfer characteristics : BT.709
Matrix coefficients : BT.709

Audio
ID : 2
Format : E-AC-3
Format/Info : Enhanced Audio Coding 3
Format settings, Endianness : Big
Codec ID : A_EAC3
Duration : 57 min 54 s
Bit rate mode : Constant
Bit rate : 640 kb/s
Channel(s) : 6 channels
Channel positions : Front: L C R, Side: L R, LFE
Sampling rate : 48.0 kHz
Frame rate : 187.500 FPS (256 SPF)
Compression mode : Lossy
Stream size : 265 MiB (10%)
Language : English
Service kind : Complete Main
Default : Yes
Forced : No

Text #1
ID : 3
Format : UTF-8
Codec ID : S_TEXT/UTF8
Codec ID/Info : UTF-8 Plain Text
Duration : 55 min 16 s
Bit rate : 48 b/s
Count of elements : 546
Stream size : 19.7 KiB (0%)
Title : Deutsch
Language : German
Default : No
Forced : No

Text #2
ID : 4
Format : UTF-8
Codec ID : S_TEXT/UTF8
Codec ID/Info : UTF-8 Plain Text
Duration : 55 min 15 s
Bit rate : 61 b/s
Count of elements : 877
Stream size : 24.9 KiB (0%)
Title : English
Language : English
Default : No
Forced : No





Goliath S03E03


Goliath S03E03


Goliath S03E03


Goliath S03E03


Goliath S03E03

All episodes