Featured TV Shows


Goliath S03E05

Posted By: Tavaz
1080p (FullHD) / WEBRip IMDb
Goliath S03E05

Goliath S03E05
WEBRip | MKV | 1920x1080 | English | H264 @ 6420 kbps | E-AC-3 @ 640 kbps | 54 min 12 s | 2.67 GiB
Subtitles: German, English
Genre: Crime, Drama


Once a powerful lawyer, Billy McBride is now burned out and washed up, spending more time in a bar than a courtroom. When he reluctantly agrees to pursue a wrongful death lawsuit against the biggest client of Cooperman & McBride, the massive law firm he helped create, Billy and his ragtag team uncover a vast and deadly conspiracy, pitting them all in a life or death trial against the ultimate Goliath.

0b15fdfe5adf45479aa3431865649a21.mkv (2.7 GB)



General
Unique ID : 193613028607495643722658636843736483231 (0x91A8835028831E0DC280F0E9EDCDC59F)
Complete name : ./0b15fdfe5adf45479aa3431865649a21.mkv
Format : Matroska
Format version : Version 4 / Version 2
File size : 2.67 GiB
Duration : 54 min 12 s
Overall bit rate : 7 062 kb/s
Encoded date : UTC 2019-10-03 22:14:15
Writing application : mkvmerge v33.1.0 ('Primrose') 64-bit
Writing library : libebml v1.3.7 + libmatroska v1.5.0

Video
ID : 1
Format : AVC
Format/Info : Advanced Video Codec
Format profile : High@L4
Format settings : CABAC / 4 Ref Frames
Format settings, CABAC : Yes
Format settings, RefFrames : 4 frames
Codec ID : V_MPEG4/ISO/AVC
Duration : 54 min 12 s
Bit rate mode : Constant
Bit rate : 6 420 kb/s
Nominal bit rate : 10 000 kb/s
Width : 1 920 pixels
Height : 1 080 pixels
Display aspect ratio : 16:9
Frame rate mode : Constant
Frame rate : 23.976 (24000/1001) FPS
Color space : YUV
Chroma subsampling : 4:2:0
Bit depth : 8 bits
Scan type : Progressive
Bits/(Pixel*Frame) : 0.129
Stream size : 2.43 GiB (91%)
Language : English
Default : Yes
Forced : No
Color range : Limited
Color primaries : BT.709
Transfer characteristics : BT.709
Matrix coefficients : BT.709

Audio
ID : 2
Format : E-AC-3
Format/Info : Enhanced Audio Coding 3
Format settings, Endianness : Big
Codec ID : A_EAC3
Duration : 54 min 12 s
Bit rate mode : Constant
Bit rate : 640 kb/s
Channel(s) : 6 channels
Channel positions : Front: L C R, Side: L R, LFE
Sampling rate : 48.0 kHz
Frame rate : 187.500 FPS (256 SPF)
Compression mode : Lossy
Stream size : 248 MiB (9%)
Language : English
Service kind : Complete Main
Default : Yes
Forced : No

Text #1
ID : 3
Format : UTF-8
Codec ID : S_TEXT/UTF8
Codec ID/Info : UTF-8 Plain Text
Duration : 51 min 14 s
Bit rate : 61 b/s
Count of elements : 625
Stream size : 23.2 KiB (0%)
Title : Deutsch
Language : German
Default : No
Forced : No

Text #2
ID : 4
Format : UTF-8
Codec ID : S_TEXT/UTF8
Codec ID/Info : UTF-8 Plain Text
Duration : 51 min 28 s
Bit rate : 77 b/s
Count of elements : 920
Stream size : 29.3 KiB (0%)
Title : English
Language : English
Default : No
Forced : No





Goliath S03E05


Goliath S03E05


Goliath S03E05


Goliath S03E05


Goliath S03E05

All episodes