Featured TV Shows


Goliath S03E07

Posted By: Tavaz
1080p (FullHD) / WEBRip IMDb
Goliath S03E07

Goliath S03E07
WEBRip | MKV | 1920x1080 | English | H264 @ 5698 kbps | E-AC-3 @ 640 kbps | 55 min 0 s | 2.44 GiB
Subtitles: German, English
Genre: Crime, Drama


Once a powerful lawyer, Billy McBride is now burned out and washed up, spending more time in a bar than a courtroom. When he reluctantly agrees to pursue a wrongful death lawsuit against the biggest client of Cooperman & McBride, the massive law firm he helped create, Billy and his ragtag team uncover a vast and deadly conspiracy, pitting them all in a life or death trial against the ultimate Goliath.

f5d252c4339049f6b308240164a23c19.mkv (2.4 GB)



General
Unique ID : 207212503709401165898097501022609813700 (0x9BE3AD33FD2CF9C6EFFEE9C6FCCD30C4)
Complete name : ./f5d252c4339049f6b308240164a23c19.mkv
Format : Matroska
Format version : Version 4 / Version 2
File size : 2.44 GiB
Duration : 55 min 0 s
Overall bit rate : 6 341 kb/s
Encoded date : UTC 2019-10-03 22:15:55
Writing application : mkvmerge v33.1.0 ('Primrose') 64-bit
Writing library : libebml v1.3.7 + libmatroska v1.5.0

Video
ID : 1
Format : AVC
Format/Info : Advanced Video Codec
Format profile : High@L4
Format settings : CABAC / 4 Ref Frames
Format settings, CABAC : Yes
Format settings, RefFrames : 4 frames
Codec ID : V_MPEG4/ISO/AVC
Duration : 55 min 0 s
Bit rate mode : Constant
Bit rate : 5 699 kb/s
Nominal bit rate : 10 000 kb/s
Width : 1 920 pixels
Height : 1 080 pixels
Display aspect ratio : 16:9
Frame rate mode : Constant
Frame rate : 23.976 (24000/1001) FPS
Color space : YUV
Chroma subsampling : 4:2:0
Bit depth : 8 bits
Scan type : Progressive
Bits/(Pixel*Frame) : 0.115
Stream size : 2.19 GiB (90%)
Language : English
Default : Yes
Forced : No
Color range : Limited
Color primaries : BT.709
Transfer characteristics : BT.709
Matrix coefficients : BT.709

Audio
ID : 2
Format : E-AC-3
Format/Info : Enhanced Audio Coding 3
Format settings, Endianness : Big
Codec ID : A_EAC3
Duration : 55 min 0 s
Bit rate mode : Constant
Bit rate : 640 kb/s
Channel(s) : 6 channels
Channel positions : Front: L C R, Side: L R, LFE
Sampling rate : 48.0 kHz
Frame rate : 187.500 FPS (256 SPF)
Compression mode : Lossy
Stream size : 252 MiB (10%)
Language : English
Service kind : Complete Main
Default : Yes
Forced : No

Text #1
ID : 3
Format : UTF-8
Codec ID : S_TEXT/UTF8
Codec ID/Info : UTF-8 Plain Text
Duration : 48 min 10 s
Bit rate : 72 b/s
Count of elements : 672
Stream size : 25.7 KiB (0%)
Title : Deutsch
Language : German
Default : No
Forced : No

Text #2
ID : 4
Format : UTF-8
Codec ID : S_TEXT/UTF8
Codec ID/Info : UTF-8 Plain Text
Duration : 52 min 1 s
Bit rate : 81 b/s
Count of elements : 960
Stream size : 31.0 KiB (0%)
Title : English
Language : English
Default : No
Forced : No





Goliath S03E07


Goliath S03E07


Goliath S03E07


Goliath S03E07


Goliath S03E07

All episodes