Featured TV Shows


Good Trouble S02E11

Posted By: Tavaz
1080p (FullHD) / WEBRip IMDb
Good Trouble S02E11

Good Trouble S02E11
WEBRip | MKV | 1920x1080 | English | H264 @ 5644 kbps | E-AC-3 @ 256 kbps | 41 min 57 s | 1.73 GiB
Subtitles: English
Genre: Drama


After moving to The Coterie in Downtown Los Angeles, Callie and Mariana Foster realize that living on their own is not all that it’s cracked up to be.

eb13f8cab6ed46c38846232a14c4dd2d.mkv (1.7 GB)



General
Unique ID : 320946639202111541317454318000925288276 (0xF1741305420630A8C0DBAD2FF22BA754)
Complete name : ./eb13f8cab6ed46c38846232a14c4dd2d.mkv
Format : Matroska
Format version : Version 4 / Version 2
File size : 1.73 GiB
Duration : 41 min 57 s
Overall bit rate : 5 902 kb/s
Encoded date : UTC 2020-01-16 08:00:55
Writing application : mkvmerge v41.0.0 ('Smarra') 64-bit
Writing library : libebml v1.3.9 + libmatroska v1.5.2

Video
ID : 1
Format : AVC
Format/Info : Advanced Video Codec
Format profile : High@L4
Format settings : CABAC / 4 Ref Frames
Format settings, CABAC : Yes
Format settings, RefFrames : 4 frames
Codec ID : V_MPEG4/ISO/AVC
Duration : 41 min 57 s
Bit rate : 5 644 kb/s
Width : 1 920 pixels
Height : 1 080 pixels
Display aspect ratio : 16:9
Frame rate mode : Constant
Frame rate : 23.976 (24000/1001) FPS
Color space : YUV
Chroma subsampling : 4:2:0
Bit depth : 8 bits
Scan type : Progressive
Bits/(Pixel*Frame) : 0.114
Stream size : 1.65 GiB (96%)
Default : Yes
Forced : No

Audio
ID : 2
Format : E-AC-3
Format/Info : Enhanced Audio Coding 3
Format settings, Endianness : Big
Codec ID : A_EAC3
Duration : 41 min 57 s
Bit rate mode : Constant
Bit rate : 256 kb/s
Channel(s) : 6 channels
Channel positions : Front: L C R, Side: L R, LFE
Sampling rate : 48.0 kHz
Frame rate : 187.500 FPS (256 SPF)
Compression mode : Lossy
Stream size : 76.8 MiB (4%)
Service kind : Complete Main
Default : Yes
Forced : No

Text
ID : 3
Format : UTF-8
Codec ID : S_TEXT/UTF8
Codec ID/Info : UTF-8 Plain Text
Duration : 41 min 25 s
Bit rate : 86 b/s
Count of elements : 845
Stream size : 26.3 KiB (0%)
Language : English
Default : No
Forced : No





Good Trouble S02E11


Good Trouble S02E11


Good Trouble S02E11


Good Trouble S02E11


Good Trouble S02E11

All episodes