Featured TV Shows


Good Witch S04E02

Posted By: Tavaz
1080p (FullHD) / WEB-DL IMDb
Good Witch S04E02

Good Witch S04E02
WEB-DL | MKV | 1920x1080 | English | H264 @ 8649 kbps | E-AC-3 @ 640 kbps | 42 min 35 s | 2.76 GiB
Subtitles: English
Genre: Comedy, Drama

Cassie Nightingale, Middleton’s favorite enchantress, and her young-teenage daughter Grace, who shares that same special intuition as her mom, welcome Dr. Sam Radford and his son to town. When the New York transplants move in next to the Grey House, they are immediately spellbound by the mother-daughter duo next door, but Sam and Cassie quickly find they may not see eye to eye. With her signature charm, Cassie attempts to bring everyone together, ensuring all of Middleton is in for new changes, big surprises and, of course, a little bit of magic!

"Good Witch” is based on Bell’s beloved character Cassie, the raven-haired enchantress who kept audiences spellbound for seven installments of Hallmark Channel's longest-running and highest-rated original movie franchise of all time.

2ada71edf2b64731b818d261c7335727.mkv (2.8 GB)



General
Complete name : ./2ada71edf2b64731b818d261c7335727.mkv
Format : Matroska
Format version : Version 4 / Version 2
File size : 2.76 GiB
Duration : 42 min 35 s
Overall bit rate mode : Variable
Overall bit rate : 9 292 kb/s
Encoded date : UTC 2018-05-07 12:05:25
Writing application : mkvmerge v21.0.0 ('Tardigrades Will Inherit The Earth') 64-bit
Writing library : libebml v1.3.5 + libmatroska v1.4.8

Video
ID : 1
Format : AVC
Format/Info : Advanced Video Codec
Format profile : High@L4
Format settings : CABAC / 4 Ref Frames
Format settings, CABAC : Yes
Format settings, RefFrames : 4 frames
Codec ID : V_MPEG4/ISO/AVC
Duration : 42 min 35 s
Bit rate mode : Variable
Bit rate : 8 650 kb/s
Maximum bit rate : 15.0 Mb/s
Width : 1 920 pixels
Height : 1 080 pixels
Display aspect ratio : 16:9
Frame rate mode : Constant
Frame rate : 23.976 (24000/1001) FPS
Color space : YUV
Chroma subsampling : 4:2:0
Bit depth : 8 bits
Scan type : Progressive
Bits/(Pixel*Frame) : 0.174
Stream size : 2.57 GiB (93%)
Default : Yes
Forced : No
Color range : Limited
Color primaries : BT.709
Transfer characteristics : BT.709
Matrix coefficients : BT.709

Audio
ID : 2
Format : E-AC-3
Format/Info : Enhanced Audio Coding 3
Format settings, Endianness : Big
Codec ID : A_EAC3
Duration : 42 min 35 s
Bit rate mode : Constant
Bit rate : 640 kb/s
Channel(s) : 6 channels
Channel positions : Front: L C R, Side: L R, LFE
Sampling rate : 48.0 kHz
Frame rate : 187.500 FPS (256 SPF)
Compression mode : Lossy
Stream size : 195 MiB (7%)
Language : English
Service kind : Complete Main
Default : Yes
Forced : No

Text #1
ID : 3
Format : UTF-8
Codec ID : S_TEXT/UTF8
Codec ID/Info : UTF-8 Plain Text
Duration : 42 min 7 s
Bit rate : 94 b/s
Count of elements : 830
Stream size : 29.1 KiB (0%)
Language : English
Default : No
Forced : No

Text #2
ID : 4
Format : UTF-8
Codec ID : S_TEXT/UTF8
Codec ID/Info : UTF-8 Plain Text
Duration : 42 min 7 s
Bit rate : 99 b/s
Count of elements : 868
Stream size : 30.8 KiB (0%)
Title : SDH
Language : English
Default : No
Forced : No





Good Witch S04E02


Good Witch S04E02


Good Witch S04E02


Good Witch S04E02


Good Witch S04E02

All episodes