Featured TV Shows


Good Witch S05E08

Posted By: Tavaz
1080p (FullHD) / WEBRip IMDb
Good Witch S05E08

Good Witch S05E08
WEBRip | MKV | 1920x1080 | English | H264 @ 9519 kbps | E-AC-3 @ 640 kbps | 41 min 37 s | 2.95 GiB
Subtitles: English
Genre: Comedy, Drama


Cassie Nightingale, Middleton’s favorite enchantress, and her young-teenage daughter Grace, who shares that same special intuition as her mom, welcome Dr. Sam Radford and his son to town. When the New York transplants move in next to the Grey House, they are immediately spellbound by the mother-daughter duo next door, but Sam and Cassie quickly find they may not see eye to eye. With her signature charm, Cassie attempts to bring everyone together, ensuring all of Middleton is in for new changes, big surprises and, of course, a little bit of magic!

"Good Witch” is based on Bell’s beloved character Cassie, the raven-haired enchantress who kept audiences spellbound for seven installments of Hallmark Channel's longest-running and highest-rated original movie franchise of all time.

8497d9603e4e4380b254e2c0ad0da82d.mkv (3.0 GB)



General
Unique ID : 326334076165982309943712412603280073239 (0xF581A82BA8FFA2D70B0374D866812217)
Complete name : ./8497d9603e4e4380b254e2c0ad0da82d.mkv
Format : Matroska
Format version : Version 4 / Version 2
File size : 2.95 GiB
Duration : 41 min 37 s
Overall bit rate : 10.2 Mb/s
Encoded date : UTC 2019-08-05 07:07:23
Writing application : mkvmerge v33.1.0 ('Primrose') 64-bit
Writing library : libebml v1.3.7 + libmatroska v1.5.0

Video
ID : 1
Format : AVC
Format/Info : Advanced Video Codec
Format profile : High@L4
Format settings : CABAC / 4 Ref Frames
Format settings, CABAC : Yes
Format settings, RefFrames : 4 frames
Codec ID : V_MPEG4/ISO/AVC
Duration : 41 min 37 s
Bit rate mode : Constant
Bit rate : 9 519 kb/s
Nominal bit rate : 10 000 kb/s
Width : 1 920 pixels
Height : 1 080 pixels
Display aspect ratio : 16:9
Frame rate mode : Constant
Frame rate : 23.976 (24000/1001) FPS
Color space : YUV
Chroma subsampling : 4:2:0
Bit depth : 8 bits
Scan type : Progressive
Bits/(Pixel*Frame) : 0.191
Stream size : 2.77 GiB (94%)
Language : English
Default : Yes
Forced : No
Color range : Limited
Color primaries : BT.709
Transfer characteristics : BT.709
Matrix coefficients : BT.709

Audio
ID : 2
Format : E-AC-3
Format/Info : Enhanced Audio Coding 3
Format settings, Endianness : Big
Codec ID : A_EAC3
Duration : 41 min 37 s
Bit rate mode : Constant
Bit rate : 640 kb/s
Channel(s) : 6 channels
Channel positions : Front: L C R, Side: L R, LFE
Sampling rate : 48.0 kHz
Frame rate : 187.500 FPS (256 SPF)
Compression mode : Lossy
Stream size : 191 MiB (6%)
Language : English
Service kind : Complete Main
Default : Yes
Forced : No

Text
ID : 3
Format : UTF-8
Codec ID : S_TEXT/UTF8
Codec ID/Info : UTF-8 Plain Text
Duration : 41 min 11 s
Bit rate : 86 b/s
Count of elements : 782
Stream size : 26.0 KiB (0%)
Title : English
Language : English
Default : No
Forced : No





Good Witch S05E08


Good 			  		  		  		 	    	 			   		  	   		  		  		  	   	 			   		 		   		  	   	 			   		  	   		      			  				 Witch S05E08


Good Witch S05E08


Good Witch S05E08


Good Witch S05E08

All episodes