Index
# A B C D E F G H I J K L M N O P Q R S T U V W X Y Z
Tags
Language
Tags
July 2024
Su Mo Tu We Th Fr Sa
30 1 2 3 4 5 6
7 8 9 10 11 12 13
14 15 16 17 18 19 20
21 22 23 24 25 26 27
28 29 30 31 1 2 3

Featured TV Shows


Gotham Knights S01E02

Posted By: Tavaz
1080p (FullHD) / WEBRip IMDb
Gotham Knights S01E02

Gotham Knights S01E02
WEBRip | MKV | 1920x872 | English | H264 @ 5862 kbps | E-AC-3 @ 640.0 kbps | 41 min 14 s | 1.87 GiB
Subtitles: English
Genre: Drama


In the aftermath of Bruce Wayne's murder, his rebellious adopted son forges an unlikely alliance with the children of Batman's enemies when they are all framed for killing the Caped Crusader.

abf77cfa3f4e43699a97bd643a66a46a.mkv (1.9 GB)



General
Unique ID : 189679714478375402893682611028380497776 (0x8EB2FBF43F61F53F7613680020763770)
Complete name : ./abf77cfa3f4e43699a97bd643a66a46a.mkv
Format : Matroska
Format version : Version 4
File size : 1.87 GiB
Duration : 41 min 14 s
Overall bit rate : 6 505 kb/s
Writing application : mkvmerge v74.0.0 ('You Oughta Know') 64-bit
Writing library : libebml v1.4.4 + libmatroska v1.7.1

Video
ID : 1
Format : AVC
Format/Info : Advanced Video Codec
Format profile : High@L4
Format settings : CABAC / 4 Ref Frames
Format settings, CABAC : Yes
Format settings, Reference frames : 4 frames
Codec ID : V_MPEG4/ISO/AVC
Duration : 41 min 14 s
Bit rate mode : Constant
Bit rate : 5 863 kb/s
Nominal bit rate : 10 000 kb/s
Width : 1 920 pixels
Height : 872 pixels
Display aspect ratio : 2.2:1
Frame rate mode : Constant
Frame rate : 23.976 (24000/1001) FPS
Color space : YUV
Chroma subsampling : 4:2:0
Bit depth : 8 bits
Scan type : Progressive
Bits/(Pixel*Frame) : 0.146
Stream size : 1.69 GiB (90%)
Default : Yes
Forced : No
Color range : Limited
Color primaries : BT.709
Transfer characteristics : BT.709
Matrix coefficients : BT.709

Audio
ID : 2
Format : E-AC-3
Format/Info : Enhanced AC-3
Commercial name : Dolby Digital Plus
Codec ID : A_EAC3
Duration : 41 min 14 s
Bit rate mode : Constant
Bit rate : 640 kb/s
Channel(s) : 6 channels
Channel layout : L R C LFE Ls Rs
Sampling rate : 48.0 kHz
Frame rate : 31.250 FPS (1536 SPF)
Compression mode : Lossy
Stream size : 189 MiB (10%)
Language : English
Service kind : Complete Main
Default : Yes
Forced : No

Text #1
ID : 3
Format : UTF-8
Codec ID : S_TEXT/UTF8
Codec ID/Info : UTF-8 Plain Text
Duration : 41 min 7 s
Bit rate : 73 b/s
Frame rate : 0.287 FPS
Count of elements : 709
Stream size : 22.2 KiB (0%)
Language : English
Default : No
Forced : No

Text #2
ID : 4
Format : UTF-8
Codec ID : S_TEXT/UTF8
Codec ID/Info : UTF-8 Plain Text
Duration : 41 min 7 s
Bit rate : 79 b/s
Frame rate : 0.318 FPS
Count of elements : 785
Stream size : 24.0 KiB (0%)
Title : SDH
Language : English
Default : No
Forced : No





Gotham Knights S01E02


Gotham Knights S01E02


Gotham Knights S01E02


Gotham Knights S01E02


Gotham Knights S01E02

All episodes