Index
# A B C D E F G H I J K L M N O P Q R S T U V W X Y Z
Tags
Language
Tags
July 2024
Su Mo Tu We Th Fr Sa
30 1 2 3 4 5 6
7 8 9 10 11 12 13
14 15 16 17 18 19 20
21 22 23 24 25 26 27
28 29 30 31 1 2 3

Featured TV Shows


Gotham Knights S01E03

Posted By: Tavaz
1080p (FullHD) / WEBRip IMDb
Gotham Knights S01E03

Gotham Knights S01E03
WEBRip | MKV | 1920x1080 | Français / English | H264 @ 6643 kbps | E-AC-3 @ 224.0 kbps | 40 min 34 s | 2.01 GiB
Subtitles: Français
Genre: Drama


In the aftermath of Bruce Wayne's murder, his rebellious adopted son forges an unlikely alliance with the children of Batman's enemies when they are all framed for killing the Caped Crusader.

gotham.knights.s01e03.multi.1080p.web.h264-amb3r.mkv (2.0 GB)



General
Unique ID : 239897189650654288146270630647503316433 (0xB47A84A3013210B587EF6FD562CCE5D1)
Complete name : ./gotham.knights.s01e03.multi.1080p.web.h264-amb3r.mkv
Format : Matroska
Format version : Version 4
File size : 2.01 GiB
Duration : 40 min 34 s
Overall bit rate : 7 094 kb/s
Encoded date : UTC 2024-03-26 17:13:22
Writing application : mkvmerge v79.0 ('Funeral Pyres') 64-bit
Writing library : libebml v1.4.4 + libmatroska v1.7.1

Video
ID : 1
Format : AVC
Format/Info : Advanced Video Codec
Format profile : High@L4
Format settings : CABAC / 4 Ref Frames
Format settings, CABAC : Yes
Format settings, Reference frames : 4 frames
Codec ID : V_MPEG4/ISO/AVC
Duration : 40 min 34 s
Bit rate mode : Constant
Bit rate : 6 644 kb/s
Nominal bit rate : 10 000 kb/s
Width : 1 920 pixels
Height : 1 080 pixels
Display aspect ratio : 16:9
Frame rate mode : Constant
Frame rate : 25.000 FPS
Color space : YUV
Chroma subsampling : 4:2:0
Bit depth : 8 bits
Scan type : Progressive
Bits/(Pixel*Frame) : 0.128
Stream size : 1.88 GiB (94%)
Default : Yes
Forced : No
Color range : Limited
Color primaries : BT.709
Transfer characteristics : BT.709
Matrix coefficients : BT.709

Audio #1
ID : 2
Format : E-AC-3
Format/Info : Enhanced AC-3
Commercial name : Dolby Digital Plus
Codec ID : A_EAC3
Duration : 40 min 34 s
Bit rate mode : Constant
Bit rate : 224 kb/s
Channel(s) : 2 channels
Channel layout : L R
Sampling rate : 48.0 kHz
Frame rate : 31.250 FPS (1536 SPF)
Compression mode : Lossy
Stream size : 65.0 MiB (3%)
Title : French
Language : French
Service kind : Complete Main
Default : Yes
Forced : No

Audio #2
ID : 3
Format : E-AC-3
Format/Info : Enhanced AC-3
Commercial name : Dolby Digital Plus
Codec ID : A_EAC3
Duration : 40 min 34 s
Bit rate mode : Constant
Bit rate : 224 kb/s
Channel(s) : 2 channels
Channel layout : L R
Sampling rate : 48.0 kHz
Frame rate : 31.250 FPS (1536 SPF)
Compression mode : Lossy
Stream size : 65.0 MiB (3%)
Title : English
Language : English
Service kind : Complete Main
Default : No
Forced : No

Text
ID : 4
Format : UTF-8
Codec ID : S_TEXT/UTF8
Codec ID/Info : UTF-8 Plain Text
Duration : 40 min 15 s
Bit rate : 70 b/s
Frame rate : 0.284 FPS
Count of elements : 686
Stream size : 20.9 KiB (0%)
Title : French
Language : French
Default : No
Forced : No





Gotham Knights S01E03


Gotham Knights S01E03


Gotham Knights S01E03


Gotham Knights S01E03


Gotham Knights S01E03

All episodes