Index
# A B C D E F G H I J K L M N O P Q R S T U V W X Y Z
Tags
Language
Tags
July 2024
Su Mo Tu We Th Fr Sa
30 1 2 3 4 5 6
7 8 9 10 11 12 13
14 15 16 17 18 19 20
21 22 23 24 25 26 27
28 29 30 31 1 2 3

Featured TV Shows


Gotham Knights S01E04

Posted By: Tavaz
1080p (FullHD) / WEBRip IMDb
Gotham Knights S01E04

Gotham Knights S01E04
WEBRip | MKV | 1920x872 | English | H264 @ 5062 kbps | E-AC-3 @ 640.0 kbps | 42 min 17 s | 1.72 GiB
Subtitles: English
Genre: Drama


In the aftermath of Bruce Wayne's murder, his rebellious adopted son forges an unlikely alliance with the children of Batman's enemies when they are all framed for killing the Caped Crusader.

bb87170845474f7184f22b98fed0d321.mkv (1.7 GB)



General
Unique ID : 255525179020126455538578315623226420108 (0xC03C5C00750E41E7386AC82F5F002B8C)
Complete name : ./bb87170845474f7184f22b98fed0d321.mkv
Format : Matroska
Format version : Version 4
File size : 1.72 GiB
Duration : 42 min 17 s
Overall bit rate : 5 818 kb/s
Writing application : mkvmerge v49.0.0 ('Sick Of Losing Soulmates') 64-bit
Writing library : libebml v1.4.0 + libmatroska v1.6.1

Video
ID : 1
Format : AVC
Format/Info : Advanced Video Codec
Format profile : High@L4
Format settings : CABAC / 4 Ref Frames
Format settings, CABAC : Yes
Format settings, Reference frames : 4 frames
Codec ID : V_MPEG4/ISO/AVC
Duration : 42 min 17 s
Bit rate mode : Constant
Bit rate : 5 063 kb/s
Nominal bit rate : 10 000 kb/s
Width : 1 920 pixels
Height : 872 pixels
Display aspect ratio : 2.2:1
Original display aspect ratio : 2.2:1
Frame rate mode : Constant
Frame rate : 23.976 (24000/1001) FPS
Color space : YUV
Chroma subsampling : 4:2:0
Bit depth : 8 bits
Scan type : Progressive
Bits/(Pixel*Frame) : 0.126
Stream size : 1.50 GiB (87%)
Default : Yes
Forced : No
Color range : Limited
Color primaries : BT.709
Transfer characteristics : BT.709
Matrix coefficients : BT.709

Audio
ID : 2
Format : E-AC-3
Format/Info : Enhanced AC-3
Commercial name : Dolby Digital Plus
Codec ID : A_EAC3
Duration : 42 min 17 s
Bit rate mode : Constant
Bit rate : 640 kb/s
Channel(s) : 6 channels
Channel layout : L R C LFE Ls Rs
Sampling rate : 48.0 kHz
Frame rate : 31.250 FPS (1536 SPF)
Compression mode : Lossy
Stream size : 194 MiB (11%)
Language : English
Service kind : Complete Main
Default : Yes
Forced : No

Text
ID : 3
Format : ASS
Codec ID : S_TEXT/ASS
Codec ID/Info : Advanced Sub Station Alpha
Compression mode : Lossless
Title : English [SDH]
Language : English
Default : No
Forced : No





Gotham Knights S01E04


Gotham Knights S01E04


Gotham Knights S01E04


Gotham Knights S01E04


Gotham Knights S01E04

All episodes