Index
# A B C D E F G H I J K L M N O P Q R S T U V W X Y Z
Tags
Language
Tags
July 2024
Su Mo Tu We Th Fr Sa
30 1 2 3 4 5 6
7 8 9 10 11 12 13
14 15 16 17 18 19 20
21 22 23 24 25 26 27
28 29 30 31 1 2 3

Featured TV Shows


Gotham Knights S01E07

Posted By: Tavaz
720p (HD) / WEB-DL IMDb
Gotham Knights S01E07

Gotham Knights S01E07
WEB-DL | BRAW | 1280x720 | H264 @ 1945 kbps | AAC @ 157.375 kbps | 40 min 29 s | 611 MiB
Genre: Drama




Gotham.Knights.S01E07.German.720p.WEB-DL.h264-TSH.mp4 (611.0 MB)



General
Complete name : ./Gotham.Knights.S01E07.German.720p.WEB-DL.h264-TSH.mp4
Format : MPEG-4
Format profile : Base Media
Codec ID : isom (isom/iso2/avc1/mp41)
File size : 611 MiB
Duration : 40 min 29 s
Overall bit rate : 2 110 kb/s
Collection : Gotham Knights
Season : 1
Track name : Gut und Böse
Description : Nach dem Tod von Bruce Wayne gleicht Gotham City einem Pulverfass. Staatsanwalt Harvey Dent und das Gotham City Police Department nehmen Waynes Ziehsohn ins Visier.
Recorded date : 2023
Writing application : Lavf60.3.100
Cover : Yes
Part_ID : 7

Video
ID : 1
Format : AVC
Format/Info : Advanced Video Codec
Format profile : High@L3.1
Format settings : CABAC / 4 Ref Frames
Format settings, CABAC : Yes
Format settings, Reference frames : 4 frames
Codec ID : avc1
Codec ID/Info : Advanced Video Coding
Duration : 40 min 29 s
Duration_LastFrame : -38 ms
Bit rate : 1 946 kb/s
Width : 1 280 pixels
Height : 720 pixels
Display aspect ratio : 16:9
Frame rate mode : Constant
Frame rate : 25.000 FPS
Color space : YUV
Chroma subsampling : 4:2:0
Bit depth : 8 bits
Scan type : Progressive
Bits/(Pixel*Frame) : 0.084
Stream size : 563 MiB (92%)
Language : English
Codec configuration box : avcC

Audio
ID : 3
Format : AAC LC
Format/Info : Advanced Audio Codec Low Complexity
Codec ID : mp4a-40-2
Duration : 40 min 29 s
Bit rate mode : Constant
Bit rate : 157 kb/s
Channel(s) : 2 channels
Channel layout : L R
Sampling rate : 48.0 kHz
Frame rate : 46.875 FPS (1024 SPF)
Compression mode : Lossy
Stream size : 45.6 MiB (7%)
Title : German
Default : Yes
Alternate group : 1





Gotham Knights S01E07


Gotham Knights S01E07


Gotham Knights S01E07


Gotham Knights S01E07


Gotham Knights S01E07

All episodes