Index
# A B C D E F G H I J K L M N O P Q R S T U V W X Y Z
Tags
Language
Tags
July 2024
Su Mo Tu We Th Fr Sa
30 1 2 3 4 5 6
7 8 9 10 11 12 13
14 15 16 17 18 19 20
21 22 23 24 25 26 27
28 29 30 31 1 2 3

Featured TV Shows


Gotham Knights S01E11

Posted By: Tavaz
1080p (FullHD) / WEBRip IMDb
Gotham Knights S01E11

Gotham Knights S01E11
WEBRip | MKV | 1920x1080 | English | H264 @ 8000 kbps | AAC @ 125.588 kbps | 42 min 25 s | 2.38 GiB
Subtitles: English
Genre: Drama


In the aftermath of Bruce Wayne's murder, his rebellious adopted son forges an unlikely alliance with the children of Batman's enemies when they are all framed for killing the Caped Crusader.

7aab8046931a41d393a962251858902a.mkv (2.4 GB)



General
Unique ID : 242167509489323764784994422368101598322 (0xB62FC40C038BF953092C56259A260472)
Complete name : ./7aab8046931a41d393a962251858902a.mkv
Format : Matroska
Format version : Version 4
File size : 2.38 GiB
Duration : 42 min 25 s
Overall bit rate : 8 039 kb/s
Writing application : mkvmerge v76.0 ('Celebration') 64-bit
Writing library : libebml v1.4.4 + libmatroska v1.7.1 / Lavf59.17.102

Video
ID : 1
Format : AVC
Format/Info : Advanced Video Codec
Format profile : High@L4
Format settings : CABAC / 3 Ref Frames
Format settings, CABAC : Yes
Format settings, Reference frames : 3 frames
Codec ID : V_MPEG4/ISO/AVC
Duration : 42 min 25 s
Bit rate mode : Constant
Bit rate : 8 000 kb/s
Width : 1 920 pixels
Height : 1 080 pixels
Display aspect ratio : 16:9
Frame rate mode : Constant
Frame rate : 23.976 (24000/1001) FPS
Color space : YUV
Chroma subsampling : 4:2:0
Bit depth : 8 bits
Scan type : Progressive
Bits/(Pixel*Frame) : 0.161
Stream size : 2.34 GiB (98%)
Default : Yes
Forced : No

Audio
ID : 2
Format : AAC LC
Format/Info : Advanced Audio Codec Low Complexity
Codec ID : A_AAC-2
Duration : 42 min 25 s
Bit rate : 126 kb/s
Channel(s) : 2 channels
Channel layout : L R
Sampling rate : 44.1 kHz
Frame rate : 43.066 FPS (1024 SPF)
Compression mode : Lossy
Stream size : 38.1 MiB (2%)
Language : English
Default : Yes
Forced : No

Text
ID : 3
Format : UTF-8
Codec ID : S_TEXT/UTF8
Codec ID/Info : UTF-8 Plain Text
Duration : 42 min 20 s
Bit rate : 88 b/s
Frame rate : 0.349 FPS
Count of elements : 887
Stream size : 27.4 KiB (0%)
Title : English
Language : English
Default : No
Forced : No





Gotham Knights S01E11


Gotham Knights S01E11


Gotham Knights S01E11


Gotham Knights S01E11


Gotham Knights S01E11

All episodes