Featured TV Shows


Gotham S05E08

Posted By: Tavaz
1080p (FullHD) / WEBRip IMDb
Gotham S05E08

Gotham S05E08
WEBRip | MKV | 1920x1080 | Italian / English | H264 @ 5200 kbps | AAC @ 63 kbps | 42 min 7 s | 1.56 GiB
Subtitles: English, Italian
Genre: Crime, Dramma, Fantasy, Thriller


I detective del Dipartimento della Polizia di Gotham City, guidati dal capitano Sarah Essen, il giovane James Gordon e il suo nuovo partner Harvey Bullock, vengono ingaggiati per risolvere uno degli omicidi più sconvolgenti e di alto profilo a cui Gotham abbia mai assistito: l'assassinio di Thomas e Martha Wayne. Durante la sua indagine, Gordon incontrerà il figlio dei Wayne, Bruce, ora sotto la tutela del maggiordomo Alfred Pennyworth, che darà informazioni utili a Gordon per trovare il killer. Lungo il suo cammino da detective, Gordon dovrà confrontarsi con diversi boss della mafia e delle gang (uno dei quali è Fish Mooney), e con quelli che saranno i futuri villains dell'universo di Batman, tra i quali Selina Kyle (la futura Catwoman), Oswald Cobblepot (colui che diventerà il Pinguino) e coloro che diverranno l'Enigmista e Poison Ivy.

Gotham.S05E08.iTALiAN.MULTi.1080p.WEB.x264-HWD.mkv (1.6 GB)
gotham.s05e08.italian.multi.1080p.web.x264-hwd.sample.mkv (38.7 MB)



General
Unique ID : 111527292906293021648355444728637051597 (0x53E76013D2906657EC12A75140F252CD)
Complete name : ./Gotham.S05E08.iTALiAN.MULTi.1080p.WEB.x264-HWD.mkv
Format : Matroska
Format version : Version 4 / Version 2
File size : 1.56 GiB
Duration : 42 min 7 s
Overall bit rate : 5 305 kb/s
Encoded date : UTC 2019-07-03 05:44:19
Writing application : mkvmerge v28.2.0 ('The Awakening') 64-bit
Writing library : libebml v1.3.6 + libmatroska v1.4.9

Video
ID : 1
Format : AVC
Format/Info : Advanced Video Codec
Format profile : High@L4
Format settings : CABAC / 4 Ref Frames
Format settings, CABAC : Yes
Format settings, RefFrames : 4 frames
Codec ID : V_MPEG4/ISO/AVC
Duration : 42 min 7 s
Bit rate : 5 200 kb/s
Width : 1 920 pixels
Height : 1 080 pixels
Display aspect ratio : 16:9
Frame rate mode : Constant
Frame rate : 25.000 FPS
Color space : YUV
Chroma subsampling : 4:2:0
Bit depth : 8 bits
Scan type : Progressive
Bits/(Pixel*Frame) : 0.100
Stream size : 1.52 GiB (98%)
Writing library : x264 core 142
Encoding settings : cabac=1 / ref=3 / deblock=1:0:0 / analyse=0x3:0x113 / me=hex / subme=7 / psy=1 / psy_rd=1.00:0.00 / mixed_ref=1 / me_range=16 / chroma_me=1 / trellis=1 / 8x8dct=1 / cqm=0 / deadzone=21,11 / fast_pskip=1 / chroma_qp_offset=-2 / threads=4 / lookahead_threads=1 / sliced_threads=0 / nr=0 / decimate=1 / interlaced=0 / bluray_compat=0 / constrained_intra=0 / bframes=3 / b_pyramid=2 / b_adapt=1 / b_bias=0 / direct=1 / weightb=1 / open_gop=0 / weightp=2 / keyint=25 / keyint_min=2 / scenecut=0 / intra_refresh=0 / rc_lookahead=25 / rc=abr / mbtree=1 / bitrate=5200 / ratetol=1.0 / qcomp=0.60 / qpmin=0 / qpmax=69 / qpstep=4 / vbv_maxrate=5720 / vbv_bufsize=5200 / nal_hrd=none / filler=0 / ip_ratio=1.40 / aq=1:1.00
Default : Yes
Forced : No

Audio #1
ID : 2
Format : AAC
Format/Info : Advanced Audio Codec
Format profile : HE-AAC / LC
Format settings : Explicit
Codec ID : A_AAC-2
Duration : 42 min 7 s
Bit rate : 64.0 kb/s
Channel(s) : 2 channels
Channel positions : Front: L R
Sampling rate : 48.0 kHz / 24.0 kHz
Frame rate : 23.438 FPS (1024 SPF)
Compression mode : Lossy
Stream size : 19.3 MiB (1%)
Title : Italian
Language : Italian
Default : Yes
Forced : No

Audio #2
ID : 3
Format : AAC
Format/Info : Advanced Audio Codec
Format profile : HE-AAC / LC
Format settings : Explicit
Codec ID : A_AAC-2
Duration : 42 min 7 s
Bit rate : 64.0 kb/s
Channel(s) : 2 channels
Channel positions : Front: L R
Sampling rate : 48.0 kHz / 24.0 kHz
Frame rate : 23.438 FPS (1024 SPF)
Compression mode : Lossy
Stream size : 19.3 MiB (1%)
Title : English
Language : English
Default : No
Forced : No

Text #1
ID : 4
Format : UTF-8
Codec ID : S_TEXT/UTF8
Codec ID/Info : UTF-8 Plain Text
Duration : 41 min 11 s
Bit rate : 65 b/s
Count of elements : 569
Stream size : 19.7 KiB (0%)
Title : Italian
Language : Italian
Default : No
Forced : No

Text #2
ID : 5
Format : UTF-8
Codec ID : S_TEXT/UTF8
Codec ID/Info : UTF-8 Plain Text
Duration : 41 min 11 s
Bit rate : 65 b/s
Count of elements : 570
Stream size : 19.6 KiB (0%)
Title : English
Language : English
Default : No
Forced : No





Gotham S05E08


Gotham S05E08


Gotham S05E08


Gotham S05E08


Gotham S05E08

All episodes