Featured TV Shows


Grace and Frankie S04E05

Posted By: Tavaz
720p (HD) / WEB-DL IMDb
Grace and Frankie S04E05

Grace and Frankie S04E05
WEB-DL | MKV | 1280x720 | English | H264 @ 1540 kbps | AC-3 @ 384 kbps | 31 min 12 s | 423 MiB
Subtitles: German, Italian, Spanish, French, English
Genre: Comedy, Drama

Elegant, proper Grace and freewheeling, eccentric Frankie are a pair of frenemies whose lives are turned upside down - and permanently intertwined - when their husbands leave them for each other. Together, they must face starting over in their 70s in a 21st century world.

Grace.and.Frankie.S04E05.The.Pop-Ups.720p.NF.WEB-DL.DD5.1.x264-NTb.mkv (422.7 MB)



General
Unique ID : 187053932827844752909816127662748502811 (0x8CB946EC695D83D080FBBFB39D928B1B)
Complete name : ./Grace.and.Frankie.S04E05.The.Pop-Ups.720p.NF.WEB-DL.DD5.1.x264-NTb.mkv
Format : Matroska
Format version : Version 4 / Version 2
File size : 423 MiB
Duration : 31 min 12 s
Overall bit rate mode : Variable
Overall bit rate : 1 894 kb/s
Encoded date : UTC 2018-01-19 12:12:06
Writing application : mkvmerge v15.0.0 ('Duel with the Devil') 64-bit
Writing library : libebml v1.3.5 + libmatroska v1.4.5

Video
ID : 1
Format : AVC
Format/Info : Advanced Video Codec
Format profile : Main@L3.1
Format settings : CABAC / 3 Ref Frames
Format settings, CABAC : Yes
Format settings, RefFrames : 3 frames
Codec ID : V_MPEG4/ISO/AVC
Duration : 31 min 12 s
Bit rate mode : Variable
Bit rate : 1 540 kb/s
Maximum bit rate : 2 310 kb/s
Width : 1 280 pixels
Height : 720 pixels
Display aspect ratio : 16:9
Frame rate mode : Constant
Frame rate : 23.976 (24000/1001) FPS
Color space : YUV
Chroma subsampling : 4:2:0
Bit depth : 8 bits
Scan type : Progressive
Bits/(Pixel*Frame) : 0.070
Stream size : 336 MiB (80%)
Writing library : x264 core 148
Encoding settings : cabac=1 / ref=3 / deblock=1:0:0 / analyse=0x1:0x111 / me=umh / subme=10 / psy=1 / psy_rd=1.00:0.00 / mixed_ref=1 / me_range=24 / chroma_me=1 / trellis=2 / 8x8dct=0 / cqm=0 / deadzone=21,11 / fast_pskip=1 / chroma_qp_offset=-2 / threads=8 / lookahead_threads=1 / sliced_threads=0 / nr=0 / decimate=1 / interlaced=0 / bluray_compat=0 / stitchable=1 / constrained_intra=0 / bframes=2 / b_pyramid=0 / b_adapt=2 / b_bias=0 / direct=3 / weightb=1 / open_gop=0 / weightp=2 / keyint=48 / keyint_min=25 / scenecut=0 / intra_refresh=0 / rc_lookahead=48 / rc=2pass / mbtree=1 / bitrate=1540 / ratetol=1.0 / qcomp=0.50 / qpmin=6 / qpmax=51 / qpstep=4 / cplxblur=20.0 / qblur=0.5 / vbv_maxrate=2310 / vbv_bufsize=3080 / nal_hrd=vbr / filler=0 / ip_ratio=1.40 / aq=1:1.00
Default : Yes
Forced : No

Audio
ID : 2
Format : AC-3
Format/Info : Audio Coding 3
Format settings, Endianness : Big
Codec ID : A_AC3
Duration : 31 min 12 s
Bit rate mode : Constant
Bit rate : 384 kb/s
Channel(s) : 6 channels
Channel positions : Front: L C R, Side: L R, LFE
Sampling rate : 48.0 kHz
Frame rate : 31.250 FPS (1536 SPF)
Bit depth : 16 bits
Compression mode : Lossy
Stream size : 85.7 MiB (20%)
Language : English
Service kind : Complete Main
Default : Yes
Forced : No

Text #1
ID : 3
Format : UTF-8
Codec ID : S_TEXT/UTF8
Codec ID/Info : UTF-8 Plain Text
Duration : 30 min 22 s
Bit rate : 96 b/s
Count of elements : 577
Stream size : 21.5 KiB (0%)
Language : English
Default : No
Forced : No

Text #2
ID : 4
Format : UTF-8
Codec ID : S_TEXT/UTF8
Codec ID/Info : UTF-8 Plain Text
Duration : 30 min 22 s
Bit rate : 101 b/s
Count of elements : 606
Stream size : 22.6 KiB (0%)
Title : SDH
Language : English
Default : No
Forced : No

Text #3
ID : 5
Format : UTF-8
Codec ID : S_TEXT/UTF8
Codec ID/Info : UTF-8 Plain Text
Duration : 29 min 46 s
Bit rate : 87 b/s
Count of elements : 542
Stream size : 19.0 KiB (0%)
Language : German
Default : No
Forced : No

Text #4
ID : 6
Format : UTF-8
Codec ID : S_TEXT/UTF8
Codec ID/Info : UTF-8 Plain Text
Duration : 29 min 46 s
Bit rate : 84 b/s
Count of elements : 551
Stream size : 18.5 KiB (0%)
Language : Spanish
Default : No
Forced : No

Text #5
ID : 7
Format : UTF-8
Codec ID : S_TEXT/UTF8
Codec ID/Info : UTF-8 Plain Text
Duration : 29 min 46 s
Bit rate : 87 b/s
Count of elements : 541
Stream size : 19.1 KiB (0%)
Language : French
Default : No
Forced : No

Text #6
ID : 8
Format : UTF-8
Codec ID : S_TEXT/UTF8
Codec ID/Info : UTF-8 Plain Text
Duration : 29 min 46 s
Bit rate : 92 b/s
Count of elements : 541
Stream size : 20.2 KiB (0%)
Language : Italian
Default : No
Forced : No





Grace and Frankie S04E05


Grace and Frankie S04E05


Grace and Frankie S04E05


Grace and Frankie S04E05


Grace and Frankie S04E05

All episodes