Featured TV Shows


Grace and Frankie S04E09

Posted By: Tavaz
1080p (FullHD) / WEBRip IMDb
Grace and Frankie S04E09

Grace and Frankie S04E09
WEBRip | MKV | 1920x1008 | English | H264 @ 4030 kbps | AC-3 @ 384 kbps | 28 min 52 s | 912 MiB
Subtitles: Portuguese, German, Spanish, French, English, Polish, Italian
Genre: Comedy, Drama

Elegant, proper Grace and freewheeling, eccentric Frankie are a pair of frenemies whose lives are turned upside down - and permanently intertwined - when their husbands leave them for each other. Together, they must face starting over in their 70s in a 21st century world.

bd7ff32f649e40a886ec5b5520fedc5c.mkv (912.2 MB)



General
Unique ID : 212725322495227230934804659500179115284 (0xA009682778E66B1F8208E678EEE9CD14)
Complete name : ./bd7ff32f649e40a886ec5b5520fedc5c.mkv
Format : Matroska
Format version : Version 4 / Version 2
File size : 912 MiB
Duration : 28 min 52 s
Overall bit rate : 4 417 kb/s
Encoded date : UTC 2018-01-25 07:41:46
Writing application : mkvmerge v18.0.0 ('Apricity') 64-bit
Writing library : libebml v1.3.5 + libmatroska v1.4.8

Video
ID : 1
Format : AVC
Format/Info : Advanced Video Codec
Format profile : High@L4.1
Format settings : CABAC / 4 Ref Frames
Format settings, CABAC : Yes
Format settings, RefFrames : 4 frames
Codec ID : V_MPEG4/ISO/AVC
Duration : 28 min 52 s
Bit rate : 4 031 kb/s
Width : 1 920 pixels
Height : 1 008 pixels
Display aspect ratio : 1.905
Frame rate mode : Constant
Frame rate : 23.976 (24000/1001) FPS
Color space : YUV
Chroma subsampling : 4:2:0
Bit depth : 8 bits
Scan type : Progressive
Bits/(Pixel*Frame) : 0.087
Stream size : 832 MiB (91%)
Writing library : x264 core 152 r2851 ba24899
Encoding settings : cabac=1 / ref=4 / deblock=1:-1:-1 / analyse=0x3:0x113 / me=umh / subme=9 / psy=1 / psy_rd=1.00:0.00 / mixed_ref=1 / me_range=16 / chroma_me=1 / trellis=2 / 8x8dct=1 / cqm=0 / deadzone=21,11 / fast_pskip=1 / chroma_qp_offset=-2 / threads=12 / lookahead_threads=1 / sliced_threads=0 / nr=0 / decimate=1 / interlaced=0 / bluray_compat=0 / constrained_intra=0 / bframes=3 / b_pyramid=2 / b_adapt=2 / b_bias=0 / direct=3 / weightb=1 / open_gop=0 / weightp=2 / keyint=240 / keyint_min=23 / scenecut=40 / intra_refresh=0 / rc_lookahead=50 / rc=crf / mbtree=1 / crf=19.0 / qcomp=0.60 / qpmin=0 / qpmax=69 / qpstep=4 / vbv_maxrate=62500 / vbv_bufsize=78125 / crf_max=0.0 / nal_hrd=none / filler=0 / ip_ratio=1.40 / aq=1:1.00
Default : Yes
Forced : No

Audio
ID : 2
Format : AC-3
Format/Info : Audio Coding 3
Format settings, Endianness : Big
Codec ID : A_AC3
Duration : 28 min 52 s
Bit rate mode : Constant
Bit rate : 384 kb/s
Channel(s) : 6 channels
Channel positions : Front: L C R, Side: L R, LFE
Sampling rate : 48.0 kHz
Frame rate : 31.250 FPS (1536 SPF)
Bit depth : 16 bits
Compression mode : Lossy
Stream size : 79.3 MiB (9%)
Title : English
Language : English
Service kind : Complete Main
Default : No
Forced : No

Text #1
ID : 3
Format : UTF-8
Codec ID : S_TEXT/UTF8
Codec ID/Info : UTF-8 Plain Text
Duration : 28 min 22 s
Bit rate : 82 b/s
Count of elements : 485
Stream size : 17.1 KiB (0%)
Title : Castilian [Full]
Language : Spanish
Default : No
Forced : No

Text #2
ID : 4
Format : UTF-8
Codec ID : S_TEXT/UTF8
Codec ID/Info : UTF-8 Plain Text
Duration : 28 min 15 s
Bit rate : 90 b/s
Count of elements : 544
Stream size : 18.7 KiB (0%)
Title : English [SDH]
Language : English
Default : No
Forced : No

Text #3
ID : 5
Format : UTF-8
Codec ID : S_TEXT/UTF8
Codec ID/Info : UTF-8 Plain Text
Duration : 28 min 22 s
Bit rate : 74 b/s
Count of elements : 468
Stream size : 15.4 KiB (0%)
Title : French [Full]
Language : French
Default : No
Forced : No

Text #4
ID : 6
Format : UTF-8
Codec ID : S_TEXT/UTF8
Codec ID/Info : UTF-8 Plain Text
Duration : 28 min 22 s
Bit rate : 77 b/s
Count of elements : 482
Stream size : 16.1 KiB (0%)
Title : Deutsch [Full]
Language : German
Default : No
Forced : No

Text #5
ID : 7
Format : UTF-8
Codec ID : S_TEXT/UTF8
Codec ID/Info : UTF-8 Plain Text
Duration : 28 min 22 s
Bit rate : 80 b/s
Count of elements : 470
Stream size : 16.7 KiB (0%)
Title : Italian [Full]
Language : Italian
Default : No
Forced : No

Text #6
ID : 8
Format : UTF-8
Codec ID : S_TEXT/UTF8
Codec ID/Info : UTF-8 Plain Text
Duration : 28 min 22 s
Bit rate : 79 b/s
Count of elements : 480
Stream size : 16.4 KiB (0%)
Title : Portuguese [Full]
Language : Portuguese
Default : No
Forced : No

Text #7
ID : 9
Format : UTF-8
Codec ID : S_TEXT/UTF8
Codec ID/Info : UTF-8 Plain Text
Duration : 27 min 32 s
Bit rate : 73 b/s
Count of elements : 473
Stream size : 14.9 KiB (0%)
Title : Polish [Full]
Language : Polish
Default : No
Forced : No





Grace and Frankie S04E09


Grace and Frankie S04E09


Grace and Frankie S04E09


Grace and Frankie S04E09


Grace and Frankie S04E09

All episodes