Featured TV Shows


Grand Hotel S01E13

Posted By: Tavaz
1080p (FullHD) / WEBRip IMDb
Grand Hotel S01E13

Grand Hotel S01E13
WEBRip | MKV | 1920x1080 | English | H264 @ 8986 kbps | E-AC-3 @ 640 kbps | 43 min 3 s | 2.90 GiB
Subtitles: English
Genre: Drama


A bold, provocative upstairs/downstairs drama set at the last family-owned hotel in multicultural Miami Beach. Wealthy and beautiful guests bask in luxury, but scandals, escalating debt and explosive secrets hide beneath the picture-perfect exterior.

5dc76e764f0744c99facc10bb3045de6.mkv (2.9 GB)



General
Unique ID : 125295381877745811125013789482096670934 (0x5E430345E3B34D8D65B00E2E8FB638D6)
Complete name : ./5dc76e764f0744c99facc10bb3045de6.mkv
Format : Matroska
Format version : Version 4 / Version 2
File size : 2.90 GiB
Duration : 43 min 3 s
Overall bit rate : 9 628 kb/s
Encoded date : UTC 2019-09-11 20:39:03
Writing application : mkvmerge v33.1.0 ('Primrose') 64-bit
Writing library : libebml v1.3.7 + libmatroska v1.5.0

Video
ID : 1
Format : AVC
Format/Info : Advanced Video Codec
Format profile : High@L4
Format settings : CABAC / 4 Ref Frames
Format settings, CABAC : Yes
Format settings, RefFrames : 4 frames
Codec ID : V_MPEG4/ISO/AVC
Duration : 43 min 3 s
Bit rate mode : Constant
Bit rate : 8 986 kb/s
Nominal bit rate : 10 000 kb/s
Width : 1 920 pixels
Height : 1 080 pixels
Display aspect ratio : 16:9
Frame rate mode : Constant
Frame rate : 23.976 (24000/1001) FPS
Color space : YUV
Chroma subsampling : 4:2:0
Bit depth : 8 bits
Scan type : Progressive
Bits/(Pixel*Frame) : 0.181
Stream size : 2.70 GiB (93%)
Language : English
Default : Yes
Forced : No
Color range : Limited
Color primaries : BT.709
Transfer characteristics : BT.709
Matrix coefficients : BT.709

Audio
ID : 2
Format : E-AC-3
Format/Info : Enhanced Audio Coding 3
Format settings, Endianness : Big
Codec ID : A_EAC3
Duration : 43 min 3 s
Bit rate mode : Constant
Bit rate : 640 kb/s
Channel(s) : 6 channels
Channel positions : Front: L C R, Side: L R, LFE
Sampling rate : 48.0 kHz
Frame rate : 187.500 FPS (256 SPF)
Compression mode : Lossy
Stream size : 197 MiB (7%)
Language : English
Service kind : Complete Main
Default : Yes
Forced : No

Text
ID : 3
Format : UTF-8
Codec ID : S_TEXT/UTF8
Codec ID/Info : UTF-8 Plain Text
Duration : 42 min 48 s
Bit rate : 84 b/s
Count of elements : 990
Stream size : 26.6 KiB (0%)
Title : English
Language : English
Default : No
Forced : No





Grand Hotel S01E13


Grand Hotel S01E13


Grand Hotel S01E13


Grand Hotel S01E13


Grand Hotel S01E13

All episodes