Featured TV Shows


Graveyard Carz S09E12

Posted By: Tavaz
720p (HD) / WEBRip IMDb
Graveyard Carz S09E12

Graveyard Carz S09E12
WEBRip | MKV | 1280x720 | English | H264 @ 3317 kbps | AAC @ 126 kbps | 44 min 7 s | 1.06 GiB
Subtitles: English

Graveyard Carz is a reality television series that currently airs on Velocity. The show documents the select crew at Mark Worman's collision shop Welby's Car Care and their restoration, research and documentation of Chrysler vehicles. The restoration footage is bookended by Worman's musings and commentary, usually at his workers' expense. The crew also provides commentary on the projects, as well as about working with each other. Occasionally the owners of cars being restored visit the shop and tell their story. It is made on location at Worman's collision shop in Springfield, Oregon.

e37d550b2ef14b27b909699a5c3406c7.mkv (1.1 GB)



General
Complete name : ./e37d550b2ef14b27b909699a5c3406c7.mkv
Format : Matroska
Format version : Version 4 / Version 2
File size : 1.06 GiB
Duration : 44 min 7 s
Overall bit rate : 3 447 kb/s
Encoded date : UTC 2018-05-31 07:42:17
Writing application : mkvmerge v9.4.2 ('So High') 64bit
Writing library : libebml v1.3.4 + libmatroska v1.4.5

Video
ID : 1
Format : AVC
Format/Info : Advanced Video Codec
Format profile : High@L4.1
Format settings : CABAC / 5 Ref Frames
Format settings, CABAC : Yes
Format settings, RefFrames : 5 frames
Codec ID : V_MPEG4/ISO/AVC
Duration : 44 min 7 s
Bit rate : 3 318 kb/s
Width : 1 280 pixels
Height : 720 pixels
Display aspect ratio : 16:9
Frame rate mode : Constant
Frame rate : 23.976 (24000/1001) FPS
Color space : YUV
Chroma subsampling : 4:2:0
Bit depth : 8 bits
Scan type : Progressive
Bits/(Pixel*Frame) : 0.150
Stream size : 1.02 GiB (96%)
Writing library : x264 core 155 r2901 7d0ff22
Encoding settings : cabac=1 / ref=5 / deblock=1:0:0 / analyse=0x3:0x113 / me=hex / subme=8 / psy=1 / psy_rd=1.00:0.00 / mixed_ref=1 / me_range=16 / chroma_me=1 / trellis=2 / 8x8dct=1 / cqm=0 / deadzone=21,11 / fast_pskip=1 / chroma_qp_offset=-2 / threads=12 / lookahead_threads=2 / sliced_threads=0 / nr=0 / decimate=1 / interlaced=0 / bluray_compat=0 / constrained_intra=0 / bframes=3 / b_pyramid=2 / b_adapt=1 / b_bias=0 / direct=3 / weightb=1 / open_gop=0 / weightp=2 / keyint=250 / keyint_min=23 / scenecut=40 / intra_refresh=0 / rc_lookahead=50 / rc=crf / mbtree=1 / crf=18.0 / qcomp=0.60 / qpmin=0 / qpmax=69 / qpstep=4 / ip_ratio=1.40 / aq=1:1.00
Default : Yes
Forced : No
Color range : Limited
Matrix coefficients : BT.709

Audio
ID : 2
Format : AAC
Format/Info : Advanced Audio Codec
Format profile : HE-AAC / LC
Format settings : Implicit
Codec ID : A_AAC-2
Duration : 44 min 7 s
Bit rate : 127 kb/s
Channel(s) : 2 channels
Channel positions : Front: L R
Sampling rate : 48.0 kHz / 24.0 kHz
Frame rate : 23.438 FPS (1024 SPF)
Compression mode : Lossy
Stream size : 40.0 MiB (4%)
Language : English
Default : Yes
Forced : No

Text
ID : 3
Format : UTF-8
Codec ID : S_TEXT/UTF8
Codec ID/Info : UTF-8 Plain Text
Duration : 44 min 4 s
Bit rate : 120 b/s
Count of elements : 1081
Stream size : 39.0 KiB (0%)
Language : English
Default : No
Forced : No





Graveyard Carz S09E12


Graveyard Carz S09E12


Graveyard Carz S09E12


Graveyard Carz S09E12


Graveyard Carz S09E12

All episodes